<?xml version="1.0" standalone="no"?>
<!DOCTYPE svg PUBLIC "-//W3C//DTD SVG 1.1//EN" "http://www.w3.org/Graphics/SVG/1.1/DTD/svg11.dtd" >
<svg xmlns="http://www.w3.org/2000/svg">
<metadata>Generated by IcoMoon</metadata>
<defs>
<font id="eventible-icons" horiz-adv-x="1024">
<font-face units-per-em="1024" ascent="960" descent="-64" />
<missing-glyph horiz-adv-x="1024" />
<glyph unicode="&#x20;" horiz-adv-x="512" d="" />
<glyph unicode="&#xe900;" glyph-name="arrow-right" d="M971.625 448.018c-0.002-7.857-3.373-14.93-8.752-19.847l-0.023-0.019-278.552-253.946c-4.762-4.353-11.128-7.019-18.118-7.019-7.857 0-14.93 3.372-19.847 8.746l-0.019 0.023c-4.353 4.762-7.019 11.128-7.019 18.118 0 7.857 3.372 14.93 8.746 19.847l0.023 0.019 256.77 234.080-256.77 234.047c-5.396 4.935-8.767 12.007-8.767 19.866 0 6.991 2.667 13.356 7.038 18.137l-0.019-0.023c4.935 5.396 12.007 8.767 19.866 8.767 6.991 0 13.356-2.667 18.137-7.038l-0.023 0.019 278.552-253.913c5.398-4.934 8.772-12.006 8.773-19.862v-0.001zM893.876 421.126h-814.611c-14.851 0-26.89 12.039-26.89 26.89s12.039 26.89 26.89 26.89h814.611c14.851 0 26.89-12.039 26.89-26.89s-12.039-26.89-26.89-26.89v0z" />
<glyph unicode="&#xe901;" glyph-name="plus" d="M512.035 127.999c-15.123 0-27.38 12.257-27.38 27.38v585.241c0 15.123 12.257 27.38 27.38 27.38s27.38-12.257 27.38-27.38v-585.241c0-15.123-12.257-27.38-27.38-27.38v0zM804.621 420.585h-585.241c-15.123 0-27.38 12.257-27.38 27.38s12.257 27.38 27.38 27.38h585.241c15.123 0 27.38-12.257 27.38-27.38s-12.257-27.38-27.38-27.38v0z" />
<glyph unicode="&#xe902;" glyph-name="angle-left" d="M658.242 127.999c15.484 0.020 28.031 12.578 28.031 28.064 0 7.749-3.141 14.764-8.219 19.844l-272.677 272.707 272.677 272.677c4.398 4.934 7.084 11.474 7.084 18.644 0 15.501-12.564 28.064-28.064 28.064-7.169 0-13.712-2.687-18.673-7.112l-292.49-292.49c-5.057-5.074-8.184-12.077-8.184-19.812s3.124-14.734 8.184-19.813l292.517-292.549c5.064-5.079 12.067-8.223 19.804-8.223 0.003 0 0.004 0 0.004 0v0z" />
<glyph unicode="&#xe903;" glyph-name="edit" d="M764.823 832c72.447-0.010 131.171-58.743 131.171-131.191 0-36.222-14.682-69.018-38.417-92.755l-481.676-481.676c-3.618-3.618-8.149-6.322-13.218-7.742l-0.212-0.052-196.256-53.527c-2.382-0.675-5.118-1.062-7.948-1.062-16.713 0-30.263 13.55-30.263 30.263 0 2.826 0.389 5.563 1.112 8.16l-0.052-0.212 53.527 196.22c1.47 5.281 4.175 9.81 7.794 13.43l481.676 481.714c23.61 23.742 56.297 38.434 92.415 38.434 0.12 0 0.241 0 0.361-0.001h-0.018zM338.794 174.875l476.002 475.964c12.822 12.802 20.754 30.498 20.754 50.047 0 39.060-31.663 70.723-70.723 70.723-19.511 0-37.177-7.902-49.974-20.678l-475.963-476.151-37.45-137.395z" />
<glyph unicode="&#xe904;" glyph-name="bulk-upload" d="M512 64c212.078 0 384 171.922 384 384s-171.922 384-384 384c-212.078 0-384-171.922-384-384v0c0.252-211.975 172.025-383.748 383.976-384h0.024zM512.502 776.645c90.51-0.267 172.394-36.974 231.797-96.213l-0.006 0.006c59.442-59.437 96.208-141.549 96.208-232.251 0-181.391-147.046-328.438-328.438-328.438-181.326 0-328.331 146.939-328.437 328.241v0.010c0 0.062 0 0.135 0 0.208 0 181.371 147.013 328.405 328.375 328.438h0.004zM547.653 599.266v-295.65c0-13.050-10.578-23.632-23.632-23.632s-23.632 10.578-23.632 23.632v295.65c0 13.050 10.578 23.632 23.632 23.632s23.632-10.578 23.632-23.632v0zM649.621 503.178c-0.001-13.050-10.579-23.63-23.632-23.63-6.328 0-12.073 2.487-16.314 6.534l0.008-0.008-86.96 83.003-89.118-83.179c-4.211-3.939-9.887-6.356-16.128-6.356-13.054 0-23.636 10.582-23.636 23.636 0 6.813 2.884 12.954 7.494 17.267l105.465 98.435c4.215 3.954 9.899 6.382 16.153 6.382 6.342 0 12.102-2.501 16.35-6.569l-0.007 0.007 103.088-98.422c4.465-4.304 7.237-10.338 7.237-17.021 0-0.030 0-0.058 0-0.089v0.006z" />
<glyph unicode="&#xe905;" glyph-name="search" d="M891.319 113.844l-222.76 222.76c42.146 51.771 67.671 118.534 67.671 191.261 0 167.958-136.156 304.114-304.114 304.114s-304.114-136.156-304.114-304.114c0-167.958 136.156-304.114 304.114-304.114 72.724 0 139.486 25.528 191.815 68.112l-0.558-0.438 222.794-222.724c2.892-2.887 6.884-4.674 11.297-4.674s8.404 1.785 11.297 4.674v0l22.59 22.59c2.868 2.888 4.638 6.869 4.638 11.261 0 4.41-1.785 8.405-4.674 11.297v0zM432.762 287.629c-132.342 0-239.626 107.284-239.626 239.626s107.284 239.626 239.626 239.626c132.342 0 239.626-107.284 239.626-239.626v0c-0.154-132.28-107.346-239.472-239.61-239.626h-0.016z" />
<glyph unicode="&#xe906;" glyph-name="angle-right" d="M365.756 128c-15.485 0.020-28.031 12.578-28.031 28.065 0 7.749 3.141 14.765 8.219 19.845l272.675 272.705-272.675 272.675c-4.398 4.935-7.086 11.475-7.086 18.645 0 15.501 12.565 28.065 28.065 28.065 7.169 0 13.712-2.687 18.673-7.112l-0.026 0.025 292.516-292.516c5.057-5.075 8.185-12.077 8.185-19.812s-3.126-14.735-8.185-19.813l-292.515-292.549c-5.065-5.079-12.067-8.223-19.805-8.223-0.003 0-0.005 0-0.005 0v0z" />
<glyph unicode="&#xe907;" glyph-name="star" d="M471.404 784.819l-92.347-187.208-206.596-30.124c-22.026-3.307-38.718-22.094-38.718-44.782 0-12.719 5.245-24.21 13.694-32.432l0.010-0.012 149.475-145.644-35.371-205.743c-0.418-2.308-0.656-4.966-0.656-7.677 0-24.966 20.238-45.206 45.206-45.206 7.711 0 14.973 1.934 21.324 5.335l-0.238-0.119 184.839 97.172 184.793-97.172c6.098-3.264 13.338-5.177 21.023-5.177 24.99 0 45.255 20.26 45.255 45.255 0 2.682-0.235 5.306-0.683 7.862l0.039-0.272-35.371 205.699 149.475 145.644c8.455 8.229 13.7 19.724 13.7 32.44 0 22.682-16.692 41.475-38.469 44.748l-0.25 0.034-206.596 30.124-92.347 187.256c-7.573 15.052-22.901 25.194-40.596 25.194s-33.022-10.146-40.476-24.939l-0.119-0.26z" />
<glyph unicode="&#xe908;" glyph-name="twitter" d="M371.927 89.707c-103.941 0.845-201.212 28.627-285.408 76.696l2.877-1.513c-7.071 3.771-11.802 11.1-11.802 19.533 0 12.187 9.879 22.063 22.063 22.063 0.174 0 0.347-0.002 0.52-0.006l-0.027 0.001h0.882c5.351-0.22 11.033-0.33 16.548-0.33h0.856c65.924 0.090 128.215 15.558 183.505 43.006l-2.413-1.084 17.872 8.743-17.485 9.488c-104.657 57.86-175.368 165.848-179.75 290.707l-0.017 0.593c-0.218 5.391-0.342 11.72-0.342 18.078 0 64.768 12.905 126.523 36.283 182.833l-1.163-3.163c3.565 7.679 11.208 12.908 20.075 12.908 7.409 0 13.968-3.653 17.967-9.255l0.046-0.067c64.691-91.624 167.565-152.572 284.97-159.584l1.036-0.050 10.866-0.662v15.169c-0.008 0.654-0.013 1.425-0.013 2.196 0 104.193 83.736 188.83 187.585 190.283l0.138 0.002h2.262c0.11 0 0.241 0.001 0.374 0.001 49.693 0 94.918-19.127 128.715-50.42l-0.124 0.114 4.551-4.22 5.847 2.096c35.178 12.808 65.628 29.008 93.348 48.787l-1.176-0.797c3.586 2.624 8.083 4.198 12.949 4.198 12.187 0 22.063-9.879 22.063-22.063 0-1.963-0.256-3.865-0.737-5.676l0.035 0.153c-13.232-53.087-38.529-99.055-72.886-136.593l0.213 0.236-3.089-3.392 0.469-4.578c0.662-6.371 0.992-12.77 1.021-18.974 0.025-1.997 0.039-4.356 0.039-6.717 0-77.185-14.899-150.892-41.981-218.398l1.4 3.951c-26.036-64.633-63.273-119.726-109.781-165.412l-0.071-0.070c-88.414-85.852-209.206-138.784-342.361-138.784-0.345 0-0.691 0.001-1.036 0.002h-5.711zM177.461 682.32c-8.526-31.94-13.425-68.61-13.425-106.425 0-6.336 0.138-12.641 0.409-18.91l-0.030 0.893c6.536-126.62 76.093-220.227 206.851-278.339 7.894-3.477 13.306-11.232 13.306-20.25 0-7.626-3.868-14.349-9.75-18.312l-0.078-0.050c-42.288-29.091-91.655-51.712-144.715-65.028l-3.141-0.667-36.847-9.075 36.406-10.729c43.439-13.293 93.383-21.011 145.107-21.155h5.839c0.297-0.001 0.649-0.002 1.002-0.002 121.067 0 230.918 48.018 311.548 126.049l-0.122-0.118c85.085 87.419 137.556 206.955 137.556 338.747 0 5.895-0.106 11.763-0.313 17.607l0.024-0.845c-0.059 9.43-1 18.603-2.744 27.486l0.151-0.926c-0.256 1.26-0.402 2.711-0.402 4.194 0 6.164 2.528 11.74 6.605 15.742l0.004 0.004c12.725 12.592 24.177 26.425 34.17 41.318l0.609 0.962 18.506 27.91-31.028-12.742c-13.073-5.379-26.56-10.177-40.157-14.315-1.929-0.642-4.152-1.032-6.459-1.076h-1.346c-6.113 0.41-11.492 3.253-15.229 7.557l-0.023 0.028c-26.847 30.763-66.126 50.090-109.92 50.090-80.441 0-145.651-65.21-145.651-145.651 0-0.689 0.006-1.38 0.015-2.067l-0.002 0.105v-37.839c0-0.002 0-0.004 0-0.006 0-12.020-9.612-21.796-21.57-22.059l-0.025-0.001h-10.866c-120.783 0.225-229.671 50.957-306.705 132.195l-0.178 0.189-12.77 13.542z" />
<glyph unicode="&#xe909;" glyph-name="linkedin" d="M741.989 65.020c0 0 0 0 0 0-10.428 0-18.885 8.443-18.904 18.865v268.429c0.007 0.362 0.013 0.783 0.013 1.208 0 31.377-25.006 56.912-56.174 57.768l-0.079 0.002h-1.44c-0.007 0-0.010 0-0.017 0-31.336 0-56.828-25.020-57.593-56.171l-0.002-0.071c0-1.045 0-2.088 0-3.168v-267.995c-0.020-10.424-8.475-18.868-18.904-18.868 0 0 0 0 0 0h-153.926c-10.287 0.182-18.561 8.556-18.577 18.865v268.429c0 137.49 111.458 248.948 248.948 248.948s248.948-111.458 248.948-248.948v0-268.392c-0.020-10.424-8.475-18.868-18.904-18.868 0 0 0 0 0 0v0zM665.62 447.945c52.758-0.061 95.514-42.805 95.598-95.552v-249.602h115.435v249.524c0.011 0.819 0.019 1.788 0.019 2.758 0 116.65-94.563 211.213-211.213 211.213s-211.213-94.563-211.213-211.213c0-0.97 0.007-1.938 0.019-2.905l-0.002 0.146v-249.524h115.797v249.524c0.042 52.699 42.669 95.427 95.326 95.633h0.019zM895.522 56.019h-153.531c-15.398 0-27.885 12.474-27.904 27.866v268.681c0.011 0.397 0.019 0.863 0.019 1.33 0 12.898-5.1 24.606-13.391 33.216l0.015-0.016c-8.602 9.1-20.642 14.872-34.033 15.23l-0.065 0.002h-1.477c-0.035 0-0.078 0-0.119 0-26.439 0-47.941-21.139-48.524-47.439l-0.001-0.056c0-0.863 0-1.8 0-2.702v-268.246c-0.020-15.395-12.506-27.868-27.904-27.868h-153.641c-15.251 0.203-27.542 12.594-27.583 27.863v268.429c0 142.461 115.488 257.949 257.949 257.949s257.949-115.488 257.949-257.949v0-268.429c-0.019-15.345-12.425-27.788-27.753-27.868h-0.007zM665.405 592.26c-132.354-0.409-239.538-107.591-239.946-239.907v-268.464c0.057-5.362 4.339-9.707 9.671-9.866h153.473c0 0 0 0 0 0 5.457 0 9.881 4.413 9.903 9.864v267.89c0 1.188 0 2.376 0 3.601 0.865 36.037 30.285 64.921 66.45 64.921 0.158 0 0.316-0.001 0.473-0.002h1.704c18.462-0.448 34.995-8.341 46.778-20.782l0.029-0.030c11.355-11.804 18.349-27.877 18.349-45.579 0-0.608-0.007-1.217-0.025-1.821l0.003 0.091v-268.282c0.020-5.453 4.445-9.867 9.903-9.867 0 0 0 0 0 0h153.531c0 0 0 0 0 0 5.457 0 9.881 4.413 9.903 9.864v268.392c-0.368 132.466-107.714 239.738-240.175 239.983h-0.024zM885.619 93.718h-133.44v258.668c-0.142 47.669-38.747 86.273-86.401 86.415h-0.014c-47.735-0.166-86.374-38.878-86.415-86.628v-258.53h-134.124v258.525c-0.011 0.838-0.019 1.826-0.019 2.815 0 121.62 98.594 220.214 220.214 220.214s220.214-98.594 220.214-220.214c0-0.99-0.007-1.979-0.019-2.966l0.002 0.151zM770.184 111.721h97.434v240.594c0.011 0.803 0.019 1.749 0.019 2.699 0 111.678-90.533 202.212-202.212 202.212s-202.212-90.533-202.212-202.212c0-0.95 0.007-1.895 0.019-2.841l-0.002 0.142v-240.522h97.756v240.522c0.042 57.695 46.741 104.469 104.403 104.634h0.016c57.603-0.164 104.255-46.816 104.417-104.403v-0.016zM128.59 64.985c-10.412 0.020-18.848 8.456-18.868 18.865v460.199c0.020 10.412 8.456 18.848 18.865 18.868h153.532c0 0 0 0 0 0 10.428 0 18.885-8.443 18.904-18.865v-460.162c-0.020-10.424-8.475-18.868-18.904-18.868 0 0 0 0 0 0v0zM147.491 102.755h115.761v422.39h-115.761zM282.118 55.983h-153.531c-15.382 0.020-27.849 12.486-27.868 27.866v460.199c0 15.398 12.474 27.885 27.866 27.904h153.532c15.398 0 27.885-12.474 27.904-27.866v-460.162c0-0.010 0-0.023 0-0.036 0-15.412-12.492-27.904-27.904-27.904 0 0 0 0 0 0v0zM128.59 553.949c-5.441-0.020-9.844-4.426-9.867-9.864v-460.162c0.020-5.441 4.426-9.844 9.864-9.867h153.532c0 0 0 0 0 0 5.457 0 9.881 4.413 9.903 9.864v460.126c-0.020 5.453-4.445 9.867-9.903 9.867 0 0 0 0 0 0v0zM272.251 93.79h-133.727v440.356h133.727zM156.494 111.792h97.756v404.349h-97.721zM205.316 640.184c-0.010 0-0.023 0-0.036 0-52.796 0-95.598 42.799-95.598 95.598s42.799 95.598 95.598 95.598c52.796 0 95.598-42.799 95.598-95.598 0-0.013 0-0.025 0-0.039v0.003c-0.081-52.744-42.818-95.479-95.552-95.561h-0.007zM205.316 793.463c-0.010 0-0.023 0-0.036 0-31.936 0-57.827-25.89-57.827-57.827s25.89-57.827 57.827-57.827c31.936 0 57.827 25.89 57.827 57.827v0c-0.061 31.893-25.899 57.73-57.784 57.791h-0.007zM205.316 631.183c-57.67 0-104.417 46.75-104.417 104.417s46.75 104.417 104.417 104.417c57.67 0 104.417-46.75 104.417-104.417v0c-0.164-57.603-46.816-104.255-104.403-104.417h-0.016zM205.316 822.34c-47.725 0-86.415-38.69-86.415-86.415s38.69-86.415 86.415-86.415c47.725 0 86.415 38.69 86.415 86.415v0c-0.243 47.626-38.788 86.171-86.392 86.415h-0.024zM205.316 668.812c-0.010 0-0.023 0-0.036 0-36.907 0-66.828 29.921-66.828 66.828s29.921 66.828 66.828 66.828c36.907 0 66.828-29.921 66.828-66.828v0c-0.061-36.883-29.945-66.767-66.82-66.828h-0.007zM205.316 784.426c-0.010 0-0.023 0-0.036 0-26.965 0-48.824-21.862-48.824-48.824s21.862-48.824 48.824-48.824c26.965 0 48.824 21.862 48.824 48.824 0 0.013 0 0.025 0 0.039v-0.003c0 0.010 0 0.024 0 0.036 0 26.958-21.836 48.82-48.785 48.862h-0.005z" />
<glyph unicode="&#xe90a;" glyph-name="mail" d="M841.065 174.546h-658.129c-44.604 0.031-80.756 36.183-80.787 80.783v385.338c0.031 44.604 36.183 80.756 80.783 80.787h658.132c44.604-0.031 80.756-36.183 80.787-80.783v-385.366c-0.031-44.604-36.183-80.756-80.783-80.787h-0.004zM182.937 694.113c-29.487 0-53.39-23.903-53.39-53.39v0-385.362c0-29.487 23.903-53.39 53.39-53.39v0h658.129c29.487 0 53.39 23.903 53.39 53.39v0 385.306c0 29.487-23.903 53.39-53.39 53.39v0zM841.065 167.52h-658.129c-48.475 0.031-87.764 39.312-87.812 87.779v385.367c0.031 48.475 39.312 87.764 87.779 87.812h658.161c48.475-0.031 87.764-39.312 87.812-87.779v-385.367c-0.031-48.484-39.328-87.78-87.81-87.812h-0.004zM182.937 714.429c-40.725-0.031-73.73-33.038-73.762-73.76v-385.366c0.031-40.725 33.038-73.73 73.76-73.762h658.132c40.725 0.031 73.73 33.038 73.762 73.76v385.366c-0.031 40.725-33.038 73.73-73.76 73.762h-0.004zM841.094 194.862h-658.157c-33.369 0.031-60.412 27.074-60.443 60.439v385.366c0.016 33.381 27.064 60.439 60.439 60.472h658.159c33.374-0.031 60.422-27.071 60.472-60.439v-385.366c-0.048-33.373-27.097-60.412-60.468-60.443h-0.004zM182.937 687.087c-25.631-0.016-46.406-20.79-46.421-46.419v-385.336c0.031-25.619 20.8-46.378 46.419-46.393h658.131c25.624 0.031 46.389 20.795 46.421 46.417v385.31c-0.031 25.624-20.795 46.389-46.417 46.421h-658.132zM511.987 379.646c-17.359 0.083-33.393 5.684-46.458 15.138l0.233-0.162-350.013 246.099c-3.172 2.545-5.185 6.42-5.185 10.767 0 7.604 6.165 13.768 13.768 13.768 2.679 0 5.179-0.766 7.295-2.089l-0.057 0.034 350.013-246.099c8.447-6.134 19.024-9.812 30.461-9.812s22.013 3.678 30.612 9.918l-0.152-0.105 350.013 246.099c2.183 1.537 4.896 2.456 7.826 2.456 7.564 0 13.695-6.131 13.695-13.695 0-4.635-2.302-8.733-5.826-11.211l-0.044-0.030-350.013-246.099c-12.794-9.333-28.791-14.988-46.102-15.145h-0.038zM512.014 372.621v0c-18.884 0.061-36.328 6.162-50.52 16.471l0.25-0.172-349.956 246.071c-5.135 3.83-8.424 9.889-8.424 16.715 0 11.485 9.31 20.795 20.795 20.795 4.29 0 8.279-1.301 11.591-3.528l-0.075 0.048 350.042-246.127c7.316-5.316 16.48-8.505 26.387-8.505s19.068 3.188 26.517 8.594l-0.13-0.091 350.013 246.099q0.703 0.534 1.433 1.012l0.505 0.309c3.085 1.928 6.832 3.072 10.847 3.072 11.426 0 20.69-9.263 20.69-20.69 0-7.412-3.897-13.914-9.756-17.568l-0.087-0.051-351.699-247.28c-13.519-9.37-30.239-15.016-48.272-15.146h-0.032zM119.6 646.624l0.197-0.14 350.013-246.099c11.646-8.619 26.293-13.795 42.149-13.795s30.504 5.176 42.344 13.932l-0.194-0.136 1.911 1.32 348.439 245.059c1.795 1.205 2.961 3.229 2.961 5.524 0 3.662-2.969 6.631-6.631 6.631-1.473 0-2.835-0.48-3.935-1.293l0.018 0.013-1.911-1.518h-0.253l-348.214-244.835c-9.579-6.948-21.571-11.115-34.535-11.115s-24.955 4.167-34.707 11.233l0.171-0.118-349.956 246.071c-1.054 0.715-2.354 1.143-3.756 1.143-3.724 0-6.745-3.020-6.745-6.745 0-2.143 1.001-4.054 2.561-5.29l0.013-0.011zM178.384 237.433c-0.004 0-0.010 0-0.016 0-7.558 0-13.685 6.127-13.685 13.685 0 3.915 1.644 7.446 4.281 9.942l0.006 0.005 213.559 201.954c2.497 2.616 6.011 4.244 9.907 4.244 7.558 0 13.685-6.127 13.685-13.685 0-4.168-1.863-7.901-4.801-10.409l-0.020-0.016-213.559-202.011c-2.433-2.314-5.733-3.738-9.365-3.738-0.018 0-0.034 0-0.052 0h0.003zM178.441 230.407v0c-11.367 0.092-20.546 9.329-20.546 20.708 0 5.93 2.493 11.277 6.487 15.054l213.57 201.851c3.778 3.949 9.088 6.402 14.973 6.402 11.438 0 20.709-9.272 20.709-20.709 0-6.298-2.81-11.937-7.244-15.736l-0.028-0.023-213.559-201.926c-3.673-3.481-8.646-5.622-14.118-5.622-0.084 0-0.169 0.001-0.253 0.002h0.013zM178.441 244.121v0.337c0.004 0 0.011 0 0.017 0 1.749 0 3.335 0.685 4.51 1.801l-0.003-0.003 213.869 202.319c1.451 1.23 2.367 3.054 2.367 5.091 0 3.677-2.982 6.659-6.659 6.659-1.905 0-3.623-0.8-4.836-2.082l-0.003-0.004-0.253-0.224-213.559-201.954c-1.282-1.216-2.078-2.932-2.078-4.834 0-3.668 2.965-6.643 6.629-6.659h0.002v-0.309zM845.617 237.461c-0.023 0-0.051 0-0.079 0-3.617 0-6.904 1.413-9.341 3.715l0.006-0.005-219.18 207.489c-2.953 2.526-4.813 6.255-4.813 10.419 0 7.558 6.127 13.685 13.685 13.685 3.905 0 7.428-1.635 9.922-4.26l0.005-0.005 219.18-207.434c2.643-2.501 4.287-6.032 4.287-9.947 0-7.558-6.127-13.685-13.685-13.685-0.005 0-0.011 0-0.016 0h0.001zM845.645 230.436v0c-5.447 0.019-10.393 2.155-14.059 5.629l0.009-0.009-219.18 207.489c-3.847 3.66-6.292 8.765-6.462 14.44l-0.001 0.031c-0.006 0.195-0.011 0.423-0.011 0.653 0 5.477 2.143 10.454 5.639 14.137l-0.009-0.009c3.782 3.985 9.119 6.465 15.034 6.465 5.525 0 10.542-2.162 14.256-5.687l-0.009 0.009 219.18-207.434c3.986-3.782 6.467-9.12 6.467-15.035 0-11.37-9.163-20.6-20.506-20.708h-0.011zM626.466 465.238c-3.665-0.018-6.63-2.993-6.63-6.659 0-1.888 0.784-3.591 2.047-4.803l0.003-0.003 219.18-207.489c1.135-1.081 2.662-1.757 4.347-1.799h0.289c3.677 0.001 6.657 2.983 6.657 6.659 0 1.901-0.797 3.617-2.075 4.831l-0.003 0.003-219.18 207.462c-1.179 1.114-2.774 1.799-4.529 1.799-0.018 0-0.036 0-0.053 0h0.003z" />
<glyph unicode="&#xe90b;" glyph-name="user" d="M761.906 64c0 131.262-112.014 0-249.92 0s-249.92 131.202-249.92 0h-79.206c3.999 175.298 147.050 315.875 322.936 315.875 2.178 0 4.35-0.019 6.521-0.066l-0.324 0.006c1.854 0.039 4.038 0.060 6.225 0.060 175.889 0 318.938-140.575 322.927-315.503l0.006-0.369zM294.87 618.586c1.203 118.122 97.236 213.415 215.527 213.415 0.582 0 1.158-0.003 1.735-0.006l-0.090 0.003c0.51 0.006 1.11 0.006 1.71 0.006 118.31 0 214.365-95.282 215.621-213.295v-0.117c-1.461-118.877-98.166-214.675-217.255-214.675s-215.791 95.802-217.253 214.541l-0.003 0.138zM374.048 618.586c1.164-75.354 62.525-135.993 138.043-135.993s136.879 60.642 138.043 135.883l0.003 0.111c-1.164 75.354-62.525 135.993-138.043 135.993s-136.879-60.641-138.043-135.883l-0.003-0.111z" />
<glyph unicode="&#xe90c;" glyph-name="calendar" d="M698.719 65.404h-492.285c-43.126 0-78.085 34.96-78.085 78.085v0 543.212c0 43.126 34.96 78.085 78.085 78.085v0h611.113c43.126 0 78.085-34.96 78.085-78.085v0-424.384c0-15-12.161-27.16-27.16-27.16s-27.16 12.161-27.16 27.16v0 424.384c0 13.124-10.64 23.764-23.764 23.764v0h-611.113c-13.124 0-23.764-10.64-23.764-23.764v0-543.212c0-13.124 10.64-23.764 23.764-23.764h492.285c15 0 27.16-12.161 27.16-27.16s-12.161-27.16-27.16-27.16v0zM335.141 696.888c24.374 0 44.137-19.759 44.137-44.137s-19.759-44.137-44.137-44.137c-24.374 0-44.137 19.759-44.137 44.137v0c0 24.374 19.759 44.137 44.137 44.137v0zM681.745 696.888c24.374 0 44.137-19.759 44.137-44.137s-19.759-44.137-44.137-44.137c-24.374 0-44.137 19.759-44.137 44.137v0c0 24.374 19.759 44.137 44.137 44.137v0zM352.116 623.521c-15 0-27.16 12.161-27.16 27.16v0 152.778c0 15 12.161 27.16 27.16 27.16v0c15 0 27.16-12.161 27.16-27.16v0-152.778c0-15-12.161-27.16-27.16-27.16v0zM698.685 623.521c-15 0-27.16 12.161-27.16 27.16v0 152.778c0 15 12.161 27.16 27.16 27.16v0c15 0 27.16-12.161 27.16-27.16v0-152.778c0-15-12.161-27.16-27.16-27.16v0zM868.473 506.763h-712.966c-15 0-27.16 12.161-27.16 27.16v0c0 15 12.161 27.16 27.16 27.16h712.966c15 0 27.16-12.161 27.16-27.16v0c0-15-12.161-27.16-27.16-27.16v0zM749.645 289.479h118.827c0.006 0 0.015 0 0.021 0 15 0 27.16-12.161 27.16-27.16 0-7.505-3.043-14.3-7.966-19.216v0l-169.755-169.755c-4.917-4.92-11.712-7.967-19.217-7.967-15 0-27.16 12.161-27.16 27.16 0 0.006 0 0.016 0 0.022v-0.002 118.827c0 43.126 34.96 78.085 78.085 78.085v0zM802.914 235.157h-53.269c-13.124 0-23.764-10.64-23.764-23.764v0-53.269zM267.545 420.834v-47.532h47.532v47.532h-47.532zM240.383 447.995h101.853v-101.853h-101.853zM267.545 251.080v-47.532h47.532v47.532h-47.532zM240.383 278.241h101.853v-101.853h-101.853zM471.248 420.834v-47.532h47.532v47.532h-47.532zM444.089 447.995h101.853v-101.853h-101.853zM471.248 251.080v-47.532h47.532v47.532h-47.532zM444.089 278.241h101.853v-101.853h-101.853zM674.953 420.834v-47.532h47.532v47.532h-47.532zM647.791 447.995h101.853v-101.853h-101.853z" />
<glyph unicode="&#xe90d;" glyph-name="category" d="M383.456 790.785v-125.249h125.249v125.249h-125.249zM363.68 843.52h164.801c18.202 0 32.959-14.757 32.959-32.959v0-164.801c0-18.202-14.757-32.959-32.959-32.959v0h-164.801c-18.202 0-32.959 14.757-32.959 32.959v0 164.801c0 18.202 14.757 32.959 32.959 32.959v0zM746.017 527.104v-125.249h125.249v125.249h-125.249zM726.241 579.839h164.801c18.202 0 32.959-14.757 32.959-32.959v0-164.801c0-18.202-14.757-32.959-32.959-32.959v0h-164.801c-18.202 0-32.959 14.757-32.959 32.959v0 164.801c0 18.202 14.757 32.959 32.959 32.959v0zM277.983 286.497v125.249h-125.249v-125.249h125.249zM297.759 233.759h-164.801c-18.202 0-32.959 14.757-32.959 32.959v0 164.801c0 18.202 14.757 32.959 32.959 32.959v0h164.801c18.202 0 32.959-14.757 32.959-32.959v0-164.801c0-18.202-14.757-32.959-32.959-32.959v0zM647.137 230.464v-125.249h125.249v125.249h-125.249zM627.361 283.199h164.801c18.202 0 32.959-14.757 32.959-32.959v0-164.801c0-18.202-14.757-32.959-32.959-32.959v0h-164.801c-18.202 0-32.959 14.757-32.959 32.959v0 164.801c0 18.202 14.757 32.959 32.959 32.959v0zM603.761 133.53h-157.681c-14.563 0-26.369 11.806-26.369 26.369v0 460.55h52.735v-434.181h131.313zM693.278 438.112h-247.2v52.735h247.2zM313.614 375.489h132.467v-52.735h-132.467z" />
<glyph unicode="&#xe90e;" glyph-name="copy" d="M655.995 687.982h-432.011c-53.002-0.021-95.963-42.983-95.985-95.982v-432.014c0.021-53.002 42.983-95.963 95.982-95.985h432.014c53.002 0.021 95.963 42.983 95.985 95.982v432.014c-0.021 53.002-42.983 95.963-95.982 95.985h-0.003zM703.989 159.986c-0.021-26.497-21.497-47.97-47.991-47.994h-432.014c-26.497 0.021-47.97 21.497-47.994 47.991v432.014c0.021 26.497 21.497 47.97 47.991 47.994h432.014c26.497-0.021 47.97-21.497 47.994-47.991v-0.003zM271.978 457.456h336.026v86.511h-336.026zM271.978 332.735h336.026v86.511h-336.026zM271.978 207.98h336.026v86.511h-336.026zM800.012 831.999h-432.011c-53.002-0.021-95.963-42.983-95.985-95.982v-0.003h47.994c0.021 26.497 21.497 47.97 47.991 47.994h432.014c26.497-0.021 47.97-21.497 47.994-47.991v-432.014c-0.021-26.497-21.497-47.97-47.991-47.994h-0.003v-47.994c53.002 0.021 95.963 42.983 95.985 95.982v432.014c-0.021 53.002-42.983 95.963-95.982 95.985h-0.003z" />
<glyph unicode="&#xe90f;" glyph-name="flag" d="M784.169 500.351c9.978 4.864 16.794 14.818 17.071 26.394l0.001 0.036c0.001 0.073 0.001 0.161 0.001 0.246 0 11.646-6.477 21.777-16.026 26.992l-0.162 0.079-418.427 210.476v36.57c0.011 0.301 0.018 0.654 0.018 1.010 0 16.482-13.362 29.844-29.844 29.844s-29.844-13.362-29.844-29.844c0-0.354 0.006-0.709 0.018-1.062l-0.002 0.052v-677.492h-55.386c-16.042-0.558-28.833-13.698-28.833-29.826s12.793-29.267 28.782-29.826l0.052-0.002h170.423c16.405 0.19 29.654 13.438 29.844 29.826v0.018c0.001 0.062 0.001 0.134 0.001 0.206 0 16.369-13.269 29.638-29.638 29.638-0.073 0-0.145 0-0.217-0.001h-55.374v185.754zM702.218 528.49l-335.759-153.385v322.1z" />
<glyph unicode="&#xe910;" glyph-name="microphone" d="M450.786 119.335h-54.258v170.818h54.258zM511.069 762.052c-33.342-34.458-53.889-81.475-53.889-133.29 0-1.59 0.018-3.176 0.057-4.758l-0.006 0.234-240.865-257.694c-16.962-18.313-27.366-42.911-27.366-69.94 0-29.186 12.133-55.539 31.63-74.287l0.033-0.031c18.441-18.618 44.011-30.145 72.276-30.145 0.327 0 0.653 0.002 0.978 0.006h-0.050c27.463 0.175 52.419 10.784 71.128 28.058l-0.072-0.066 278.623 220.002h3.255c52.585 0.114 100.156 21.488 134.587 55.983l0.003 0.003c32.371 33.942 52.29 80.011 52.29 130.734 0 104.695-84.871 189.568-189.568 189.568-51.774 0-98.697-20.754-132.909-54.399l0.027 0.026zM349.818 236.283c-14.682-13.807-34.508-22.29-56.317-22.29-45.444 0-82.285 36.84-82.285 82.285 0 21.273 8.073 40.662 21.322 55.267l-0.062-0.068 234.355 249.067 153.957-151.809zM637.035 462.73l-158.254 156.236c-0.215 3.189-0.338 6.915-0.338 10.667 0 23.763 4.914 46.376 13.779 66.883l-0.421-1.094 220.717-217.495c-19.174-9.701-41.801-15.38-65.754-15.38-3.378 0-6.727 0.114-10.050 0.335l0.45-0.024zM765.148 512.267c-9.33-9.54-19.947-17.763-31.585-24.402l-0.703-0.369-230.418 227.162c7.007 12.342 15.23 22.962 24.743 32.262l0.027 0.026c30.318 30.724 72.421 49.755 118.968 49.755 92.292 0 167.11-74.817 167.11-167.11 0-45.746-18.38-87.199-48.162-117.375l0.018 0.018zM645.365 828.551v0c110.491-0.035 200.051-89.615 200.051-200.113 0-54.37-21.683-103.675-56.874-139.743l0.041 0.042c-36.294-36.213-86.278-58.719-141.522-59.077h-0.068l-275.563-217.559c-20.406-18.755-47.709-30.288-77.707-30.402h-0.023c-0.339-0.005-0.738-0.006-1.139-0.006-31.056 0-59.149 12.689-79.376 33.162l-0.011 0.011c-20.662 19.904-33.767 47.527-34.662 78.215l-0.005 0.162c-0.018 0.764-0.030 1.666-0.030 2.571 0 29.916 11.397 57.171 30.089 77.658l-0.080-0.090 238.099 254.635c-0.002 0.284-0.003 0.623-0.003 0.961 0 54.577 21.785 104.064 57.131 140.244l-0.038-0.039 1.662 1.662c35.707 35.658 85.015 57.711 139.468 57.711 0.198 0 0.393 0 0.591-0.001h-0.030zM718.927 792.062c-21.546 9.951-46.759 15.753-73.327 15.753-0.081 0-0.163 0-0.246 0h0.013c-0.162 0.001-0.351 0.001-0.54 0.001-49.509 0-94.267-20.343-126.373-53.123l-0.389-0.389c-11.511-11.905-21.427-25.458-29.344-40.242l-0.474-0.966 241.517-237.968-12.564-6.51c-20.564-10.462-44.847-16.592-70.559-16.592-3.53 0-7.033 0.114-10.506 0.342l0.474-0.025h-4.002l-163.854 161.609-0.326 3.809c-0.265 3.63-0.414 7.866-0.414 12.136 0 25.007 5.168 48.808 14.497 70.388l-0.443-1.151 3.872 9.504c-11.634-23.329-18.443-50.816-18.443-79.894 0-1.54 0.018-3.072 0.056-4.602l-0.006 0.226v-4.198l-243.728-260.687c-15.322-16.46-24.727-38.61-24.727-62.957 0-26.301 10.975-50.040 28.6-66.883l0.035-0.032c16.578-16.806 39.602-27.215 65.059-27.215 0.323 0 0.646 0.002 0.968 0.006l-0.050-0.001c24.811 0.155 47.349 9.769 64.217 25.411l-0.061-0.055 0.487 0.424 281.455 222.213h6.834c49.707 0.226 94.652 20.418 127.27 52.962l-0.004-0.004c31.646 32.207 51.18 76.402 51.18 125.161 0 47.103-18.232 89.947-48.021 121.862l0.096-0.103c28.53-31.537 46.062-73.495 46.285-119.54v-0.045c0.006-0.52 0.008-1.134 0.008-1.746 0-46.95-18.33-89.623-48.227-121.243l0.078 0.083-2.801-2.801c-10.014-10.218-21.414-19.026-33.906-26.13l-0.76-0.398-6.738-3.678-241.45 238.065 3.743 6.834c7.506 13.252 16.311 24.65 26.502 34.639l0.026 0.025c32.448 32.708 77.415 52.96 127.111 52.96 26.012 0 50.73-5.549 73.032-15.524l-1.134 0.453zM757.563 519.203l0.228 0.228c27.792 28.146 44.958 66.843 44.958 109.547 0 0.544-0.004 1.086-0.007 1.626l0.001-0.082c-0.21 43.4-17.746 82.664-46.038 111.269l0.015-0.015c-28.371 27.648-67.183 44.701-109.975 44.701-43.866 0-83.549-17.918-112.124-46.833l-0.016-0.016c-7.029-6.93-13.326-14.568-18.779-22.811l-0.328-0.526 218.959-215.899c8.685 5.699 16.249 11.898 23.101 18.805l0.008 0.008zM694.321 481.020l-198.355 195.295c-4.6-14.021-7.252-30.154-7.252-46.91 0-2.174 0.043-4.336 0.133-6.486l-0.009 0.307 152.591-150.51h3.483c0.441-0.006 0.966-0.006 1.487-0.006 17.185 0 33.658 3.043 48.911 8.623l-0.99-0.318zM466.67 615.254l169.875-167.5-279.924-219.448c-16.626-15.45-38.985-24.932-63.558-24.932-0.038 0-0.076 0-0.114 0h0.006c-0.117-0.001-0.258-0.001-0.398-0.001-25.046 0-47.718 10.164-64.113 26.593l-0.002 0.002c-16.418 16.338-26.834 38.694-27.663 63.479l-0.005 0.154c-0.042 1.013-0.065 2.2-0.065 3.39 0 23.791 9.224 45.429 24.294 61.53l-0.046-0.051zM605.266 449.514l-138.043 136.123-227.194-241.352c-11.615-12.685-18.733-29.658-18.733-48.29 0-20.163 8.334-38.379 21.741-51.39l0.018-0.018c12.669-12.67 30.174-20.507 49.506-20.507 0.126 0 0.252 0 0.378 0.001h-0.018c0.012 0 0.027 0 0.042 0 19.29 0 36.828 7.494 49.865 19.729l-0.040-0.036 0.683 0.585zM645.365 832v0c0.012 0 0.026 0 0.041 0 112.424 0 203.563-91.138 203.563-203.563 0-55.308-22.057-105.463-57.856-142.152l0.042 0.042c-36.647-36.551-87.005-59.371-142.69-60.085l-0.137-0.002-274.555-216.777c-20.998-19.261-49.076-31.1-79.917-31.216h-0.023c-0.353-0.005-0.766-0.006-1.182-0.006-31.997 0-60.937 13.074-81.775 34.17l-0.012 0.012c-21.323 20.482-34.858 48.934-35.802 80.551l-0.005 0.174c-0.018 0.791-0.030 1.722-0.030 2.658 0 30.798 11.731 58.855 30.97 79.95l-0.084-0.093 0.162 0.196 237.187 253.688c0.113 55.253 22.127 105.34 57.822 142.062l-0.046-0.048 1.724 1.724c36.357 36.282 86.545 58.721 141.974 58.721 0.221 0 0.438 0 0.659-0.001h-0.033zM293.833 185.115c29.131 0.133 55.623 11.341 75.498 29.627l-0.078-0.073 276.507 218.309h1.206c54.355 0.366 103.477 22.482 139.152 58.073l-0.005-0.005c34.527 35.401 55.823 83.843 55.823 137.262 0 108.615-88.050 196.663-196.663 196.663-0.012 0-0.023 0-0.035 0h0.002c-0.14 0-0.307 0.001-0.474 0.001-53.545 0-102.026-21.678-137.145-56.737l-1.658-1.658c-34.513-35.531-55.793-84.079-55.793-137.599 0-0.329 0.001-0.654 0.003-0.981v0.051-1.367l-239.141-255.774c-18.042-19.78-29.094-46.206-29.094-75.216 0-0.87 0.009-1.742 0.030-2.61l-0.003 0.128c0.863-29.919 13.578-56.706 33.588-75.968l0.035-0.033c19.615-19.806 46.818-32.070 76.883-32.070 0.48 0 0.959 0.004 1.438 0.008l-0.073-0.001zM645.365 811.267c0.074 0 0.161 0 0.246 0 27.041 0 52.697-5.922 75.741-16.543l-1.124 0.464-2.801-6.315c-20.79 9.376-45.068 14.838-70.627 14.838-48.75 0-92.853-19.876-124.658-51.964l-0.013-0.013c-10.027-9.788-18.672-20.932-25.65-33.147l-0.39-0.738-2.506-4.556 237.609-234.355 4.493 2.442c12.954 7.366 24.095 16.010 33.855 26.010l0.030 0.030 2.703 2.832c29.234 30.967 47.202 72.845 47.202 118.915 0 0.534-0.003 1.065-0.006 1.599l0.001-0.080c-0.327 45.158-17.502 86.241-45.546 117.334l0.138-0.157 5.078 4.654c30.282-32.43 48.873-76.111 48.873-124.135 0-49.68-19.897-94.711-52.156-127.566l0.028 0.028c-33.238-33.17-79.047-53.755-129.663-53.999h-5.678l-280.901-221.824c-17.407-16.052-40.723-25.932-66.346-26.040h-0.021c-0.256-0.003-0.558-0.005-0.858-0.005-26.406 0-50.293 10.794-67.484 28.214l-0.009 0.010c-18.282 17.496-29.646 42.092-29.646 69.343 0 25.23 9.738 48.184 25.663 65.308l-0.054-0.059 242.817 259.711v2.801c-0.030 1.247-0.047 2.717-0.047 4.188 0 29.72 6.939 57.822 19.284 82.77l-0.487-1.092 6.282-2.832-3.872-9.504c-8.728-20.049-13.805-43.407-13.805-67.95 0-4.116 0.142-8.201 0.425-12.246l-0.030 0.546 0.228-2.538 161.997-159.786h2.67c2.965-0.202 6.426-0.318 9.916-0.318 25.11 0 48.828 5.972 69.806 16.576l-0.886-0.406 8.397 4.395-239.627 236.34 1.206 2.278c8.554 16.050 18.666 29.857 30.45 42.041l-0.050-0.052 0.39 0.39c32.756 33.454 78.387 54.197 128.86 54.197 0.197 0 0.39 0 0.587-0.001h-0.030zM631.337 448.018l-164.569 162.292-239.369-254.309c-14.438-15.438-23.302-36.244-23.302-59.118 0-1.153 0.022-2.299 0.066-3.441l-0.006 0.163c0.807-24.021 10.842-45.554 26.654-61.288l0.005-0.005c15.774-15.807 37.584-25.585 61.676-25.585 0.138 0 0.278 0 0.415 0.001h-0.021c0.021 0 0.048 0 0.074 0 23.68 0 45.224 9.136 61.305 24.074l-0.055-0.053 0.228 0.196zM646.863 789.783c0.242 0.002 0.527 0.003 0.811 0.003 43.417 0 82.771-17.394 111.475-45.594l-0.023 0.022c28.902-29.214 46.823-69.342 47.034-113.655v-0.042c0.006-0.458 0.006-0.999 0.006-1.541 0-43.653-17.538-83.212-45.953-112.011l-0.21-0.21c-7.037-7.094-14.79-13.454-23.154-18.966l-0.543-0.336-2.31-1.497-222.931 219.806 1.53 2.345c5.912 8.991 12.347 16.82 19.518 23.91l0.014 0.014c28.974 29.559 69.313 47.882 113.935 47.882 0.224 0 0.45-0.001 0.677-0.002h-0.035zM734.747 504.652c7.546 5.203 14.154 10.736 20.207 16.821l0.006 0.006 0.196 0.228c27.169 27.527 43.95 65.366 43.95 107.122 0 0.536-0.004 1.074-0.007 1.609l0.001-0.081c-0.203 42.461-17.355 80.875-45.030 108.859l0.015-0.015c-27.741 27.004-65.678 43.657-107.503 43.657-42.896 0-81.703-17.517-109.651-45.79l-0.015-0.016c-6.203-6.138-11.832-12.832-16.815-20.008l-0.306-0.466zM494.208 682.763l206.264-203.239-5.11-1.889c-14.543-5.327-31.336-8.408-48.846-8.408-0.621 0-1.242 0.005-1.864 0.012l0.094-0.001h-4.948l-154.511 152.429v1.336c-0.078 1.87-0.125 4.064-0.125 6.27 0 17.141 2.712 33.646 7.731 49.114l-0.317-1.124zM687.778 482.324l-190.252 187.451c-3.498-12.090-5.51-25.975-5.51-40.333 0-1.659 0.028-3.309 0.079-4.955l-0.006 0.24 150.639-148.589h2.050c0.306-0.003 0.666-0.005 1.028-0.005 15.036 0 29.53 2.322 43.145 6.628l-1.014-0.276zM466.964 590.42l143.216-141.331-265.472-208.087c-13.582-12.725-31.9-20.538-52.038-20.538-0.014 0-0.028 0-0.042 0h0.003c-0.112-0.001-0.244-0.001-0.375-0.001-20.283 0-38.643 8.224-51.93 21.515v0c-14.149 13.638-22.936 32.754-22.936 53.925 0 19.53 7.48 37.314 19.73 50.645l-0.049-0.054zM599.861 449.675l-132.541 130.915-224.786-238.783c-11.062-12.066-17.841-28.218-17.841-45.952 0-19.211 7.956-36.565 20.754-48.944l0.018-0.018c12.049-12.066 28.703-19.53 47.102-19.53 0.114 0 0.226 0 0.341 0.001h-0.018c0.009 0 0.021 0 0.033 0 18.387 0 35.105 7.146 47.526 18.815l-0.037-0.034 0.782 0.683zM502.020 64h-159.589c-15.281 0-27.666 12.388-27.666 27.666s12.388 27.666 27.666 27.666h159.491c15.281 0 27.666-12.388 27.666-27.666s-12.388-27.666-27.666-27.666v0z" />
<glyph unicode="&#xe911;" glyph-name="upload" d="M644.125 187.147h-264.214c-15.822 0-28.65 12.827-28.65 28.65v0 261.512h-107.343c-0.004 0-0.006 0-0.010 0-15.822 0-28.65 12.827-28.65 28.65 0 7.398 2.802 14.14 7.406 19.222l-0.021-0.025 268.083 297.353c5.266 5.835 12.856 9.486 21.296 9.486s16.031-3.652 21.274-9.461l0.022-0.026 268.047-297.353c4.579-5.058 7.385-11.802 7.385-19.198 0-15.822-12.827-28.65-28.65-28.65-0.005 0-0.006 0-0.011 0h-107.306v-261.512c0-15.822-12.827-28.65-28.65-28.65v0zM408.6 244.451h206.873v261.512c0 15.822 12.827 28.65 28.65 28.65v0h71.538l-203.662 225.891-203.626-225.891h71.574c15.822 0 28.65-12.827 28.65-28.65v0zM771.251 64h-518.464c-68.874 0.063-124.689 55.878-124.752 124.745v73.002c0 15.822 12.827 28.65 28.65 28.65s28.65-12.827 28.65-28.65v0-72.998c0.042-37.234 30.214-67.409 67.446-67.448h518.467c37.228 0.042 67.392 30.22 67.412 67.446v73.001c0 15.822 12.827 28.65 28.65 28.65s28.65-12.827 28.65-28.65v0-72.998c-0.063-68.862-55.857-124.67-124.709-124.752h-0.007z" />
<glyph unicode="&#xe912;" glyph-name="download" d="M644.127 831.998h-264.21c-15.822 0-28.65-12.827-28.65-28.65v0-261.51h-107.342c-0.004 0-0.006 0-0.010 0-15.822 0-28.65-12.827-28.65-28.65 0-7.398 2.802-14.14 7.406-19.222l-0.021 0.025 268.080-297.353c5.266-5.835 12.856-9.486 21.296-9.486s16.031 3.652 21.274 9.461l0.022 0.026 268.044 297.353c4.579 5.058 7.385 11.802 7.385 19.198 0 15.822-12.827 28.65-28.65 28.65-0.005 0-0.006 0-0.011 0h-107.305v261.51c0 15.822-12.827 28.65-28.65 28.65v0zM408.529 774.658h206.874v-261.51c0-15.822 12.827-28.65 28.65-28.65v0h71.538l-203.659-225.888-203.623 225.888h71.574c15.822 0 28.65 12.827 28.65 28.65v0zM771.249 64h-518.458c-68.874 0.063-124.688 55.878-124.751 124.746v73.002c0 15.822 12.827 28.65 28.65 28.65s28.65-12.827 28.65-28.65v0-72.997c0.042-37.234 30.214-67.409 67.446-67.448h518.463c37.228 0.042 67.392 30.22 67.412 67.446v73c0 15.822 12.827 28.65 28.65 28.65s28.65-12.827 28.65-28.65v0-72.997c-0.063-68.861-55.856-124.669-124.708-124.751h-0.007z" />
<glyph unicode="&#xe913;" glyph-name="time" d="M512 832c212.085-0.042 383.999-171.978 383.999-384.070 0-0.013 0-0.025 0-0.038v0.002c-0.061-212.032-171.96-383.893-383.999-383.893-212.077 0-383.999 171.922-383.999 383.999s171.922 383.999 383.999 383.999v0zM512 120.887c180.62 0 327.042 146.422 327.042 327.042s-146.422 327.042-327.042 327.042c-180.62 0-327.042-146.422-327.042-327.042 0-0.013 0-0.025 0-0.038v0.002c0.203-180.534 146.509-326.826 327.027-327.007h0.018zM642.746 308.375l-10.378-10.378c-4.272-4.126-10.098-6.668-16.518-6.668-5.972 0-11.431 2.202-15.609 5.838l0.030-0.025-134.062 117.194c-9.473 9.499-15.354 22.582-15.442 37.038v0.018l12.377 211.349c0.839 12.32 10.96 22.018 23.381 22.182h14.639c12.424-0.13 22.539-9.834 23.322-22.078l0.005-0.068 10.164-175.826c1.533-14.86 7.254-28.148 15.946-38.946l-0.112 0.142 93.156-107.492c3.619-4.17 5.826-9.654 5.826-15.651 0-6.462-2.562-12.328-6.726-16.633l0.006 0.006z" />
<glyph unicode="&#xe914;" glyph-name="stop-watch" d="M511.644 32c-195.63 0.228-354.126 158.866-354.126 354.53 0 84.019 29.228 161.211 78.069 221.968l-0.537-0.689c65.512 81.5 165.194 133.217 276.955 133.217 84.043 0 161.259-29.245 222.017-78.117l-0.687 0.535 9.106-7.274 57.565 57.565c13.995-12.372 26.785-25.161 38.751-38.691l0.407-0.467-57.565-57.565 7.274-9.106c48.354-60.080 77.607-137.313 77.607-221.37 0-195.799-158.728-354.529-354.529-354.529-0.111 0-0.214 0-0.323 0h0.019zM511.929 685.867c-165.076 0-298.892-133.819-298.892-298.892s133.819-298.892 298.892-298.892v0h0.539c164.96 0.151 298.625 133.915 298.625 298.892 0 165.076-133.819 298.892-298.892 298.892-0.096 0-0.188 0-0.282 0h0.015zM484.129 578.136h55.634v-218.966h-55.542zM402.525 864h218.965v-55.634h-218.966z" />
<glyph unicode="&#xe915;" glyph-name="insightful" d="M511.984 708.393c16.225 0 29.376 13.152 29.376 29.376v0 73.483c0 16.232-13.159 29.391-29.391 29.391s-29.391-13.159-29.391-29.391v0-73.483c0-16.225 13.152-29.376 29.376-29.376 0.009 0 0.020 0 0.030 0h-0.002zM264.014 635.665c5.39-5.159 12.713-8.333 20.78-8.333s15.389 3.174 20.79 8.343l-0.010-0.010c5.32 5.317 8.609 12.663 8.609 20.78s-3.291 15.461-8.609 20.778v0l-51.937 51.85c-5.406 6.079-13.251 9.893-21.985 9.893-16.225 0-29.376-13.152-29.376-29.376 0-8.734 3.811-16.579 9.862-21.958l0.030-0.026zM232.838 429.248c0 16.225-13.152 29.376-29.376 29.376v0h-73.483c-16.232 0-29.391-13.159-29.391-29.391s13.159-29.391 29.391-29.391v0h73.483c16.225 0 29.376 13.152 29.376 29.376 0 0.009 0 0.020 0 0.030v-0.002zM292.434 230.429c-2.277 0.631-4.889 0.997-7.59 0.997-8.14 0-15.505-3.306-20.829-8.651l-0.001-0.001-51.88-51.937c-5.32-5.317-8.609-12.663-8.609-20.78s3.291-15.461 8.609-20.778v0c5.39-5.159 12.713-8.333 20.78-8.333s15.389 3.174 20.79 8.343l51.927 51.927c5.371 5.332 8.697 12.716 8.697 20.877 0 13.558-9.175 24.975-21.657 28.374l-0.206 0.047zM760.015 222.774c-5.318 5.318-12.664 8.608-20.78 8.608-16.228 0-29.384-13.156-29.384-29.384 0-8.116 3.289-15.46 8.608-20.78l51.937-51.937c5.39-5.159 12.713-8.333 20.78-8.333s15.389 3.174 20.79 8.343l-0.010-0.010c5.32 5.317 8.609 12.663 8.609 20.78s-3.291 15.461-8.609 20.778v0zM894.022 458.623h-73.454c-16.232 0-29.391-13.159-29.391-29.391s13.159-29.391 29.391-29.391v0h73.454c16.232 0 29.391 13.159 29.391 29.391s-13.159 29.391-29.391 29.391v0zM760.015 635.665l51.937 51.937c5.318 5.318 8.608 12.664 8.608 20.78 0 16.228-13.156 29.384-29.384 29.384-8.116 0-15.46-3.289-20.78-8.608l-51.88-51.908c-5.32-5.317-8.609-12.663-8.609-20.78s3.291-15.461 8.609-20.778v0c5.392-5.144 12.707-8.308 20.765-8.308 8.044 0 15.346 3.153 20.745 8.29l-0.012-0.011zM442.503 55.391c-12.268 0.049-22.197 9.997-22.214 22.27v22.067h183.711v-22.185c-0.068-12.236-9.975-22.136-22.208-22.185h-0.007zM407.472 146.39c-12.236 0.068-22.136 9.975-22.185 22.208v85.405l-5.423 3.77c-60.204 42.321-99.063 111.477-99.063 189.709 0 127.677 103.505 231.182 231.182 231.182s231.182-103.505 231.182-231.182c0-78.23-38.858-147.386-98.327-189.219l-0.734-0.49-5.423-3.77v-85.431c-0.068-12.236-9.975-22.136-22.208-22.185h-0.007zM429.657 190.816h164.598v86.215l26.707 18.85c47.358 34.325 77.809 89.472 77.809 151.727 0 103.19-83.652 186.842-186.842 186.842s-186.842-83.652-186.842-186.842c0-63.353 31.529-119.34 79.753-153.126l0.6-0.398 24.155-17.050z" />
<glyph unicode="&#xe916;" glyph-name="save" d="M734.227 96.002c-4.37 0.014-8.454 1.214-11.963 3.29l0.11-0.060-210.371 122.667-210.371-122.667c-3.4-1.994-7.487-3.174-11.853-3.174s-8.453 1.179-11.964 3.234l0.113-0.061c-7.12 4.164-11.832 11.764-11.853 20.472v537.039c0.051 43.754 35.504 79.208 79.254 79.259h333.338c43.754-0.051 79.208-35.504 79.259-79.254v-537.042c0-13.092-10.614-23.704-23.704-23.704v0zM512.003 273.037c4.37-0.014 8.454-1.214 11.963-3.29l-0.11 0.060 186.667-108.829v495.764c-0.014 17.584-14.264 31.834-31.85 31.853h-333.338c-17.584-0.014-31.834-14.264-31.853-31.85v-495.768l186.667 108.829c3.394 2.014 7.483 3.213 11.844 3.229h0.004z" />
<glyph unicode="&#xe917;" glyph-name="share" d="M627.985 704c60.757 0 110.015-49.255 110.015-110.015s-49.255-110.015-110.015-110.015c-60.757 0-110.015 49.255-110.015 110.015v0c0 60.757 49.255 110.015 110.015 110.015v0zM627.985 523.979c38.665 0 70.008 31.345 70.008 70.008s-31.345 70.008-70.008 70.008c-38.665 0-70.008-31.345-70.008-70.008v0c0-38.665 31.345-70.008 70.008-70.008v0zM268.015 494.026c60.757 0 110.015-49.255 110.015-110.015s-49.255-110.015-110.015-110.015c-60.757 0-110.015 49.255-110.015 110.015v0c0 60.757 49.255 110.015 110.015 110.015v0zM268.015 314.004c38.665 0 70.008 31.345 70.008 70.008s-31.345 70.008-70.008 70.008c-38.665 0-70.008-31.345-70.008-70.008v0c0-38.665 31.345-70.008 70.008-70.008v0zM627.985 284.024c60.757 0 110.015-49.255 110.015-110.015s-49.255-110.015-110.015-110.015c-60.757 0-110.015 49.255-110.015 110.015v0c0 60.757 49.255 110.015 110.015 110.015v0zM627.985 104.003c38.665 0 70.008 31.345 70.008 70.008s-31.345 70.008-70.008 70.008c-38.665 0-70.008-31.345-70.008-70.008v0c0-38.665 31.345-70.008 70.008-70.008v0zM550.576 199.343c-3.686 0.015-7.135 1.025-10.095 2.775l0.095-0.051-204.876 119.388c-5.853 3.561-9.699 9.905-9.699 17.145 0 11.045 8.955 20.004 20.004 20.004 3.622 0 7.016-0.964 9.945-2.645l-0.096 0.052 204.876-119.388c5.976-3.535 9.924-9.945 9.924-17.276 0-11.019-8.911-19.957-19.92-20.004h-0.005zM345.724 409.315c-11.015 0.045-19.925 8.984-19.925 20.004 0 7.335 3.945 13.745 9.83 17.225l0.095 0.051 204.576 119.388c2.94 1.795 6.496 2.856 10.304 2.856 11.045 0 20.004-8.955 20.004-20.004 0-7.425-4.045-13.905-10.055-17.356l-0.096-0.052-204.576-119.388c-2.886-1.715-6.365-2.725-10.079-2.725-0.025 0-0.050 0-0.075 0h0.005z" />
<glyph unicode="&#xe918;" glyph-name="review" d="M149.483 64c-11.863 0-21.483 9.618-21.483 21.483v644.477c0 56.358 45.686 102.042 102.042 102.042v0h563.916c56.358 0 102.042-45.686 102.042-102.042v0-402.799c0-56.358-45.686-102.042-102.042-102.042h-474.468l-154.807-154.835c-3.886-3.882-9.255-6.282-15.183-6.282-0.006 0-0.012 0-0.018 0h0.001zM230.041 789.034c-32.627 0-59.077-26.45-59.077-59.077v-592.623l124.437 124.437c3.887 3.895 9.26 6.306 15.198 6.31h483.356c32.627 0 59.077 26.45 59.077 59.077v0 402.799c0 32.627-26.45 59.077-59.077 59.077v0zM743.77 614.489h-456.503c-11.863 0-21.483 9.618-21.483 21.483v0c0 11.863 9.618 21.483 21.483 21.483h456.503c11.863 0 21.483-9.618 21.483-21.483v0c0-11.863-9.618-21.483-21.483-21.483v0zM743.77 507.076h-456.503c-11.863 0-21.483 9.618-21.483 21.483v0c0 11.863 9.618 21.483 21.483 21.483h456.503c11.863 0 21.483-9.618 21.483-21.483v0c0-11.863-9.618-21.483-21.483-21.483v0zM475.238 399.664h-187.973c-11.863 0-21.483 9.618-21.483 21.483v0c0 11.863 9.618 21.483 21.483 21.483h187.973c11.863 0 21.483-9.618 21.483-21.483v0c0-11.863-9.618-21.483-21.483-21.483v0z" />
<glyph unicode="&#xe919;" glyph-name="heart" d="M703.432 837.062c0.017 0 0.039 0 0.060 0 137.067 0 248.182-111.115 248.182-248.182 0-68.556-27.798-130.623-72.735-175.536l-344.581-344.52c-6.108-6.108-14.546-9.887-23.867-9.887s-17.756 3.778-23.866 9.887l-344.581 344.615c-43.13 44.589-69.713 105.422-69.713 172.462 0 137.067 111.115 248.182 248.182 248.182 67 0 127.8-26.549 172.451-69.702l-0.070 0.068 17.452-17.452 17.452 17.452c44.65 44.859 106.444 72.616 174.722 72.616 0.321 0 0.64-0.001 0.961-0.002h-0.050zM510.569 140.376l320.732 320.732c32.702 32.698 52.932 77.873 52.932 127.772 0 99.787-80.896 180.686-180.686 180.686-49.89 0-95.058-20.22-127.756-52.914v0l-41.434-41.27c-6.108-6.108-14.546-9.887-23.867-9.887s-17.756 3.778-23.866 9.887l-41.337 41.337c-32.698 32.698-77.874 52.925-127.772 52.925-99.796 0-180.697-80.901-180.697-180.697 0-49.898 20.224-95.070 52.925-127.772v0z" />
<glyph unicode="&#xe91a;" glyph-name="briefcase" d="M231.765 643.444h560.47c49.895-0.058 90.325-40.489 90.381-90.378v-350.217c-0.058-49.895-40.489-90.325-90.378-90.381h-560.473c-49.895 0.058-90.325 40.489-90.381 90.378v350.217c0.058 49.895 40.489 90.325 90.378 90.381h0.005zM792.235 153.146c27.383 0.1 49.549 22.308 49.577 49.7v350.217c-0.028 27.393-22.192 49.601-49.568 49.705h-560.48c-27.438-0.028-49.674-22.266-49.705-49.7v-350.217c0.028-27.438 22.266-49.674 49.7-49.705h0.004zM652.022 602.769c-11.234 0-20.338 9.107-20.338 20.338v0 70.043c-0.028 27.438-22.266 49.674-49.7 49.705h-140.089c-27.438-0.028-49.674-22.266-49.705-49.7v-70.047c0-11.234-9.107-20.338-20.338-20.338s-20.338 9.107-20.338 20.338v0 70.043c0.058 49.895 40.489 90.325 90.378 90.381h140.090c49.895-0.058 90.325-40.489 90.381-90.378v-70.048c0-11.234-9.107-20.338-20.338-20.338v0zM860.878 427.648h-687.487v40.678h687.487z" />
<glyph unicode="&#xe91b;" glyph-name="angle-up-light" d="M847.725 294.572c-0.021-16.247-13.196-29.408-29.445-29.408-8.13 0-15.492 3.294-20.819 8.624l-286.107 286.073-286.073-286.073c-5.175-4.615-12.038-7.436-19.561-7.436-16.263 0-29.445 13.184-29.445 29.445 0 7.522 2.82 14.384 7.461 19.589l-0.026-0.030 306.892 306.892c5.325 5.307 12.671 8.589 20.784 8.589s15.459-3.282 20.786-8.59l306.925-306.891c5.328-5.312 8.625-12.661 8.625-20.779 0-0.003 0-0.003 0-0.006v0.001z" />
<glyph unicode="&#xe91c;" glyph-name="angle-down-light" d="M176.276 601.428c0.021 16.247 13.196 29.408 29.445 29.408 8.13 0 15.492-3.294 20.819-8.624l286.107-286.072 286.072 286.072c5.175 4.615 12.038 7.436 19.561 7.436 16.263 0 29.445-13.184 29.445-29.445 0-7.522-2.82-14.384-7.461-19.589l0.026 0.030-306.892-306.892c-5.325-5.307-12.671-8.589-20.784-8.589s-15.459 3.282-20.786 8.59l-306.925 306.891c-5.328 5.312-8.625 12.661-8.625 20.779 0 0.003 0 0.003 0 0.006v-0.001z" />
<glyph unicode="&#xe91d;" glyph-name="angle-left-light" d="M657.803 128.958c15.439 0.020 27.947 12.54 27.947 27.981 0 7.726-3.132 14.721-8.194 19.786l-271.858 271.889 271.858 271.858c4.385 4.92 7.065 11.441 7.065 18.589 0 15.455-12.527 27.981-27.981 27.981-7.148 0-13.671-2.679-18.617-7.091l0.026 0.025-291.64-291.64c-5.042-5.060-8.16-12.041-8.16-19.753s3.117-14.691 8.16-19.754l291.639-291.673c5.050-5.064 12.031-8.198 19.746-8.198 0.003 0 0.005 0 0.005 0v0z" />
<glyph unicode="&#xe91e;" glyph-name="angle-right-light" d="M365.758 128c-15.485 0.020-28.031 12.578-28.031 28.065 0 7.749 3.141 14.765 8.219 19.845l272.675 272.705-272.675 272.675c-4.398 4.935-7.086 11.475-7.086 18.645 0 15.501 12.565 28.065 28.065 28.065 7.169 0 13.712-2.687 18.673-7.112l-0.026 0.025 292.516-292.516c5.057-5.075 8.185-12.077 8.185-19.812s-3.126-14.735-8.185-19.813l-292.515-292.549c-5.065-5.079-12.067-8.223-19.805-8.223-0.003 0-0.005 0-0.005 0v0z" />
<glyph unicode="&#xe91f;" glyph-name="virtual" d="M511.998 48.607h-167.576c-12.339 0-22.344 10.003-22.344 22.344v0c0 12.339 10.003 22.344 22.344 22.344v0h145.234v122.89h-312.811c-58.616 0-106.132 47.517-106.132 106.132v0 418.944c0 58.616 47.517 106.132 106.132 106.132h670.31c58.616 0 106.132-47.517 106.132-106.132v0-418.944c0-58.616-47.517-106.132-106.132-106.132h-312.811v-122.89h145.234c12.339 0 22.344-10.003 22.344-22.344v0c0-12.339-10.003-22.344-22.344-22.344v0zM847.152 260.871c33.935 0 61.445 27.51 61.445 61.445v0 89.374h-220.644v-150.82zM115.399 741.259v-418.944c0-33.935 27.51-61.445 61.445-61.445h466.422v541.832h-466.422c-33.935 0-61.445-27.51-61.445-61.445v0zM908.598 456.378v150.82h-220.644v-150.82zM908.598 651.884v89.374c0 33.935-27.51 61.445-61.445 61.445h-159.199v-150.82zM548.53 305.139c-0.111 93.169-75.609 168.667-168.767 168.778h-0.010c-93.169-0.111-168.667-75.609-168.778-168.767v-0.010c-0.016-12.195-9.897-22.076-22.090-22.092h-0.002c-12.189 0.016-22.064 9.901-22.064 22.092v0c0.128 117.55 95.386 212.807 212.92 212.934h0.012c117.55-0.128 212.807-95.386 212.934-212.92v-0.012c0-12.191-9.875-22.076-22.062-22.092h-0.002c-12.205 0.016-22.092 9.914-22.092 22.121v0zM250.327 651.074c0.093 71.441 57.983 129.33 129.416 129.425h0.009c71.441-0.093 129.33-57.983 129.425-129.416v-0.009c-0.080-71.454-57.974-129.359-129.416-129.453h-0.009c-71.439 0.111-129.318 58.010-129.398 129.448v0.007zM294.485 651.074c0.032-47.084 38.185-85.25 85.265-85.297h0.005c47.084 0.047 85.237 38.21 85.268 85.293v0.004c-0.047 47.073-38.196 85.221-85.265 85.268h-0.005c-47.059-0.064-85.193-38.205-85.24-85.265v-0.005z" />
<glyph unicode="&#xe920;" glyph-name="in-person, in_person" d="M917.504 341.063c-0.036 68.819-41.704 127.897-101.18 153.417l-1.086 0.415c26.908 20.129 44.138 51.915 44.138 87.727 0 60.336-48.912 109.248-109.248 109.248s-109.248-48.912-109.248-109.248c0-35.811 17.231-67.598 43.854-87.522l0.286-0.204c-40.204-17.579-71.455-49.398-87.873-88.93l-0.405-1.101-20.108 10.485c26.908 20.129 44.138 51.915 44.138 87.727 0 60.336-48.912 109.248-109.248 109.248s-109.248-48.912-109.248-109.248c0-35.811 17.231-67.598 43.854-87.522l0.286-0.204-20.108-10.485c-17.013 40.259-48.221 71.739-87.204 88.694l-1.072 0.415c26.908 20.129 44.138 51.915 44.138 87.727 0 60.336-48.912 109.248-109.248 109.248s-109.248-48.912-109.248-109.248c0-35.811 17.231-67.598 43.854-87.522l0.286-0.204c-59.928-26.075-101.123-84.665-101.377-152.909v-39.359h34.961v39.328c0.216 72.723 59.218 131.591 131.969 131.591 57.727 0 106.797-37.064 124.712-88.695l0.279-0.926c-32.306-30.366-52.427-73.376-52.427-121.084 0-0.141 0-0.283 0.001-0.423v0.022-39.328h34.991v39.328c-0.274 3.19-0.431 6.903-0.431 10.653 0 72.885 59.085 131.97 131.97 131.97s131.97-59.085 131.97-131.97c0-3.75-0.156-7.464-0.462-11.133l0.033 0.48v-39.328h34.961v39.328c0.001 0.107 0.001 0.234 0.001 0.362 0 47.726-20.132 90.751-52.368 121.043l-0.088 0.080c18.872 51.304 67.319 87.238 124.157 87.238 71.915 0 130.393-57.52 131.939-129.064l0.003-0.144v-39.328h34.961zM199.046 581.39c0 0.004 0 0.011 0 0.016 0 41.012 33.246 74.257 74.257 74.257s74.257-33.246 74.257-74.257c0-41.012-33.246-74.257-74.257-74.257-20.495 0-39.050 8.303-52.486 21.727l0.001-0.001c-13.447 13.437-21.768 32.004-21.772 52.513v0.001zM437.652 501.846v0c-0.004 0.253-0.004 0.552-0.004 0.85 0 41.012 33.246 74.257 74.257 74.257s74.257-33.246 74.257-74.257c0-41.012-33.246-74.257-74.257-74.257-20.344 0-38.779 8.181-52.192 21.434l0.007-0.007c-13.434 13.274-21.829 31.624-22.069 51.935l-0.001 0.045zM676.256 581.39v0c0 0.004 0 0.011 0 0.016 0 41.012 33.246 74.257 74.257 74.257s74.257-33.246 74.257-74.257c0-41.012-33.246-74.257-74.257-74.257-20.495 0-39.050 8.303-52.486 21.727l0.001-0.001c-13.447 13.437-21.768 32.004-21.772 52.513v0.001zM517.166 204.132c-22.565 0.064-44.345 3.314-64.949 9.324l1.652-0.413c-36.223 10.336-67.708 27.005-94.772 48.923l0.495-0.388 19.485 22.425c23.694-18.863 51.697-33.499 82.2-42.213l1.68-0.411c16.281-4.692 34.981-7.39 54.311-7.39 51.445 0 98.427 19.112 134.231 50.624l-0.225-0.194 18.505-23.228c-40.94-34.818-94.198-56.261-152.445-57.058l-0.17-0.002zM266.65 293.212c-20.908 0.033-41.042 3.288-59.952 9.297l1.407-0.385c-33.551 10.65-62.49 27.392-86.915 49.102l0.241-0.21 20.496 21.505c21.249-18.577 46.598-33.068 74.46-41.919l1.491-0.408c14.635-4.521 31.459-7.124 48.892-7.124 47.154 0 89.86 19.049 120.839 49.874l-0.007-0.007 19.514-22.366c-36.66-34.654-85.937-56.295-140.258-57.353l-0.209-0.004zM762.782 293.241c-55.905 0.957-106.593 22.534-144.952 57.428l0.179-0.161 19.159 22.692c32.59-31.008 76.784-50.085 125.433-50.085 18.501 0 36.36 2.759 53.183 7.889l-1.29-0.339c29.945 9.173 55.865 23.592 77.989 42.351l-0.316-0.261 20.138-21.802c-25.023-21.509-54.859-38.218-87.603-48.282l-1.743-0.461c-17.996-5.629-38.692-8.904-60.143-8.971h-0.034z" />
<glyph unicode="&#xe921;" glyph-name="hybrid" d="M904.848 490.403h-33.235v301.023c-0.18 28.223-23.102 51.031-51.35 51.031-0.011 0-0.023 0-0.034 0h-435.107c-0.009 0-0.020 0-0.032 0-28.241 0-51.154-22.812-51.317-51.017v-200.954c-71.388-3.133-128.077-61.768-128.077-133.646 0-73.878 59.89-133.766 133.766-133.766 46.445 0 87.365 23.672 111.347 59.608l0.305 0.489h386.247c46.307 0.056 83.829 37.577 83.884 83.878v6.895c0 9.037-7.325 16.361-16.361 16.361v0zM385.123 809.956h435.141c0.019 0 0.043 0 0.065 0 10.208 0 18.489-8.238 18.561-18.428v-301.029h-88.125v40.826c-0.036 40.677-32.999 73.64-73.673 73.677h-7.977c11.376 14.144 18.289 32.299 18.373 52.066v0.019c0 46.847-37.977 84.824-84.824 84.824s-84.824-37.977-84.824-84.824v0c0.081-19.786 6.994-37.942 18.497-52.247l-0.127 0.164h-7.973c-40.677-0.036-73.64-32.999-73.677-73.673v-6.192c-19.135 31.975-50.381 55.023-87.244 62.93l-0.881 0.158v203.202c0.072 10.196 8.357 18.435 18.562 18.435 0.022 0 0.044 0 0.068 0h-0.004zM550.625 657.149c0 28.765 23.318 52.086 52.086 52.086s52.086-23.318 52.086-52.086c0-28.765-23.318-52.086-52.086-52.086v0c-28.731 0.019-52.024 23.269-52.116 51.979v0.008zM677.119 572.34c22.593-0.019 40.902-18.328 40.921-40.919v-41.051h-230.663v40.952c0.019 22.593 18.328 40.902 40.919 40.921h0.002zM339.577 356.061c-55.858 0-101.138 45.281-101.138 101.138s45.281 101.138 101.138 101.138c55.858 0 101.138-45.281 101.138-101.138v0c0-55.888-45.288-101.197-101.167-101.233h-0.004zM837.391 416.088h-370.491c4.045 12.172 6.38 26.184 6.38 40.741 0 0.13 0 0.26-0.001 0.391v-0.019c0 0.192 0 0.382 0 0.575h414.249c-4.655-23.868-25.38-41.643-50.26-41.686h-0.006zM339.546 320.021c-0.187-0.001-0.408-0.002-0.629-0.002-75.639 0-136.957 61.319-136.957 136.957 0 72.707 56.658 132.182 128.229 136.683l0.394 0.019v197.749c0.18 29.984 24.529 54.223 54.539 54.223 0 0 0.001 0 0.001 0h435.141c0.010 0 0.020 0 0.032 0 30.010 0 54.359-24.238 54.539-54.203v-297.851h31.065c10.352-0.575 18.529-9.107 18.532-19.553v0-6.891c-0.056-48.067-39.006-87.017-87.066-87.073h-384.719c-24.932-36.399-66.252-59.989-113.088-60.058h-0.011zM385.123 839.428c-0.010 0-0.020 0-0.032 0-26.48 0-47.966-21.385-48.128-47.826v-203.854h-3.189c-69.661-3.088-124.968-60.312-124.968-130.458 0-72.117 58.461-130.577 130.577-130.577 45.298 0 85.208 23.065 108.627 58.091l0.298 0.474 0.957 1.435h387.968c44.543 0.056 80.64 36.15 80.693 80.689v6.895c-0.019 7.267-5.905 13.153-13.171 13.172h-36.426v303.958c-0.18 26.462-21.674 47.842-48.159 47.842-0.011 0-0.023 0-0.034 0h0.002zM339.546 352.777c-57.618 0-104.327 46.708-104.327 104.327s46.708 104.327 104.327 104.327c57.618 0 104.327-46.708 104.327-104.327v0c-0.056-57.597-46.73-104.274-104.323-104.327h-0.006zM339.546 555.022c-54.096 0-97.95-43.853-97.95-97.95s43.853-97.95 97.95-97.95c54.096 0 97.95 43.853 97.95 97.95v0c-0.056 54.074-43.874 97.894-97.943 97.95h-0.006zM837.359 412.802h-374.859l1.339 4.179c4.032 11.98 6.365 25.778 6.38 40.118v0.006c0 0.223 0 0.416 0 0.575v3.189h421.266l-0.702-3.796c-4.928-25.372-26.97-44.266-53.423-44.27h-0.001zM471.207 419.182h366.153c21.989 0.006 40.519 14.795 46.197 34.97l0.081 0.338h-407.040c-0.265-12.675-2.215-24.791-5.636-36.273l0.247 0.965zM721.198 487.213h-237.042v44.11c0.036 24.348 19.764 44.073 44.108 44.11h148.826c24.348-0.036 44.073-19.764 44.11-44.108v-0.005zM490.535 493.592h224.284v37.732c-0.019 20.832-16.9 37.713-37.73 37.732h-148.823c-20.832-0.019-37.713-16.9-37.732-37.73v-0.002zM842.081 487.213h-94.504v44.11c-0.036 38.914-31.572 70.452-70.484 70.488h-14.546l4.050 5.166c10.97 13.596 17.633 31.067 17.702 50.091v0.016c0 45.086-36.55 81.636-81.636 81.636s-81.636-36.55-81.636-81.636v0c0.068-19.040 6.731-36.511 17.822-50.259l-0.119 0.155 4.050-5.166h-14.545c-38.914-0.036-70.452-31.572-70.488-70.484v-17.801l-5.934 9.984c-18.708 31.222-49.24 53.723-85.255 61.434l-0.861 0.155-2.553 0.511v205.816c0.072 11.959 9.784 21.626 21.753 21.626 0.022 0 0.044 0 0.068 0h435.137c0.019 0 0.043 0 0.065 0 11.969 0 21.678-9.666 21.753-21.617v-0.006zM753.954 493.592h81.747v297.833c-0.056 8.449-6.915 15.278-15.373 15.278-0.022 0-0.044 0-0.068 0h-435.583c-8.282-0.213-14.921-6.941-14.991-15.241v-200.657c34.038-7.963 62.529-27.717 81.586-54.621l0.288-0.429c2.459 40.479 35.866 72.383 76.733 72.433h1.696c-9.548 13.657-15.262 30.607-15.278 48.891v0.005c0 48.607 39.406 88.013 88.013 88.013s88.013-39.406 88.013-88.013v0c-0.017-18.287-5.731-35.237-15.463-49.174l0.185 0.28h1.69c42.437-0.036 76.829-34.428 76.865-76.864v-0.005zM602.549 601.779c-30.526 0-55.273 24.747-55.273 55.273s24.747 55.273 55.273 55.273c30.526 0 55.273-24.747 55.273-55.273v0c-0.036-30.513-24.761-55.238-55.269-55.273h-0.004zM602.549 705.947c-27.004 0-48.894-21.889-48.894-48.894s21.889-48.894 48.894-48.894c27.004 0 48.894 21.889 48.894 48.894v0c-0.036 26.989-21.905 48.858-48.892 48.894h-0.004zM119.121 53.54h440.817c9.037 0 16.361 7.325 16.361 16.361v0 95.685c-0.092 86.98-70.578 157.469-157.55 157.561h-158.462c-86.98-0.092-157.469-70.578-157.561-157.55v-95.692c0-9.037 7.325-16.361 16.361-16.361v0zM135.483 165.65c0.072 68.915 55.921 124.764 124.83 124.836h158.46c68.915-0.072 124.764-55.921 124.836-124.83v-79.234h-70.168v88.347c0 9.037-7.325 16.361-16.361 16.361s-16.361-7.325-16.361-16.361v0-88.347h-202.276v88.347c0 9.037-7.325 16.361-16.361 16.361s-16.361-7.325-16.361-16.361v0-88.347h-70.168zM559.938 50.351h-440.817c-10.792 0.019-19.534 8.761-19.553 19.551v95.687c0.108 88.736 72.014 160.642 160.74 160.75h158.464c88.736-0.108 160.642-72.014 160.75-160.74v-95.694c-0.019-10.802-8.779-19.553-19.583-19.553 0 0 0 0 0 0v0zM260.128 320.021c-85.22-0.092-154.282-69.149-154.369-154.362v-95.692c0.019-7.267 5.905-13.153 13.171-13.172h441.011c7.267 0.019 13.153 5.905 13.172 13.171v95.687c-0.092 85.22-69.149 154.282-154.362 154.369h-0.008zM546.606 83.075h-76.547v91.698c0 7.276-5.896 13.172-13.172 13.172s-13.172-5.896-13.172-13.172v0-91.539h-208.464v91.539c0 7.276-5.896 13.172-13.172 13.172s-13.172-5.896-13.172-13.172v0-91.539h-76.547v82.576c0.072 70.676 57.348 127.953 128.019 128.024h158.46c70.676-0.072 127.953-57.348 128.024-128.019v-0.006zM476.438 89.453h63.79v76.196c-0.072 67.155-54.493 121.575-121.639 121.647h-158.46c-67.155-0.072-121.575-54.493-121.647-121.639v-76.044h63.79v85.159c0 10.797 8.754 19.553 19.553 19.553s19.553-8.754 19.553-19.553v0-85.159h195.865v85.159c0 10.797 8.754 19.553 19.553 19.553s19.553-8.754 19.553-19.553v0z" />
<glyph unicode="&#xe922;" glyph-name="info" d="M512 64c-212.078 0-384 171.922-384 384s171.922 384 384 384c212.078 0 384-171.922 384-384v0c-0.246-211.978-172.022-383.754-383.976-384h-0.024zM511.511 776.645c-90.512-0.269-172.398-36.978-231.801-96.222l0.006 0.006c-59.515-59.458-96.33-141.63-96.33-232.4 0-181.425 147.076-328.501 328.501-328.501s328.501 147.076 328.501 328.501c0 0.001 0 0.001 0 0.002v0c0 0.034 0 0.076 0 0.114 0 181.345-146.945 328.37-328.257 328.501h-0.013zM484.366 536.089h55.355v-326.108h-55.355zM484.366 658.241h55.355v-55.326h-55.355z" />
<glyph unicode="&#xe923;" glyph-name="file-plus" d="M512 235.425c-18.935 0-34.286 15.351-34.286 34.286v0 356.573c0 18.935 15.351 34.286 34.286 34.286v0c18.935 0 34.286-15.351 34.286-34.286v0-356.573c0-18.935-15.351-34.286-34.286-34.286v0zM299.427 447.998c0 18.935 15.351 34.286 34.286 34.286v0h356.573c18.935 0 34.286-15.351 34.286-34.286v0c0-18.935-15.351-34.286-34.286-34.286v0h-356.573c-18.935 0-34.286 15.351-34.286 34.286v0zM265.143 788.112c-51.505 0-93.258-41.754-93.258-93.258v0-493.714c0-51.505 41.754-93.258 93.258-93.258v0h493.714c51.505 0 93.258 41.754 93.258 93.258v0 493.714c0 51.505-41.754 93.258-93.258 93.258v0h-493.714zM265.143 831.998h493.714c75.741 0 137.141-61.4 137.141-137.141v0-493.714c0-75.741-61.4-137.141-137.141-137.141v0h-493.714c-75.741 0-137.141 61.4-137.141 137.141v0 493.714c0 75.741 61.4 137.141 137.141 137.141v0z" />
<glyph unicode="&#xe924;" glyph-name="registration" d="M210.306 78.46c-15.226 0.018-27.564 12.366-27.564 27.594v0c0.003 177.63 143.998 321.623 321.628 321.623 99.794 0 188.972-45.45 247.965-116.779l0.435-0.541h-77.31c-45.963 38.732-105.836 62.271-171.211 62.271-147.185 0-266.501-119.316-266.501-266.501 0-0.027 0-0.054 0-0.078v0.005c-0.018-15.181-12.277-27.493-27.437-27.594h-0.009zM504.37 446.048c-106.579 0-192.978 86.398-192.978 192.978s86.398 192.978 192.978 192.978c106.579 0 192.978-86.398 192.978-192.978v0c-0.117-106.531-86.445-192.86-192.968-192.978h-0.011zM504.37 776.873c-76.133 0-137.85-61.717-137.85-137.85s61.717-137.85 137.85-137.85c76.133 0 137.85 61.717 137.85 137.85v0c-0.084 76.099-61.75 137.766-137.839 137.85h-0.007zM341.353 121.964h470.832c16.007 0 28.984-12.978 28.984-28.984s-12.978-28.984-28.984-28.984v0h-470.832c-16.007 0-28.984 12.978-28.984 28.984s12.978 28.984 28.984 28.984v0zM558.698 266.882h253.577c16.007 0 28.984-12.978 28.984-28.984s-12.978-28.984-28.984-28.984v0h-253.577c-16.007 0-28.984 12.978-28.984 28.984s12.978 28.984 28.984 28.984v0z" />
<glyph unicode="&#xe925;" glyph-name="arrow-left" d="M384.71 701.962c-0.002-7.86-3.376-14.933-8.755-19.844l-0.020-0.019-256.769-234.078 256.769-234.078c5.396-4.938 8.767-12.007 8.767-19.866 0-6.988-2.667-13.356-7.038-18.137l0.019 0.020c-4.938-5.396-12.007-8.767-19.866-8.767-6.988 0-13.356 2.667-18.137 7.038l0.020-0.019-278.55 253.914c-5.399 4.938-8.773 12.011-8.773 19.87 0 0.010 0 0.020 0 0.029v-0.002c0.002 7.86 3.376 14.933 8.755 19.844l0.020 0.019 278.55 253.914c4.759 4.353 11.128 7.019 18.115 7.019 14.85 0 26.887-12.037 26.89-26.885v-0.001zM944.734 421.127h-814.611c-14.854 0-26.89 12.039-26.89 26.89s12.039 26.89 26.89 26.89h814.611c14.854 0 26.89-12.039 26.89-26.89s-12.039-26.89-26.89-26.89v0z" />
<glyph unicode="&#xe926;" glyph-name="flag1" d="M646.045 373.604c-52.034 1.858-101.013 12.753-146.133 31.155l2.85-1.027c-36.669 15.264-79.169 24.99-123.687 26.939l-0.786 0.029c-5.562 0.506-12.031 0.794-18.57 0.794-35.225 0-68.493-8.369-97.929-23.226l1.246 0.57c-5.010-4.678-11.763-7.551-19.182-7.551-4.248 0-8.276 0.942-11.887 2.626l0.174-0.073c-10.34 4.782-17.385 15.066-17.385 26.994 0 0.248 0.004 0.498 0.008 0.744l-0.001-0.037v342.52c0 0.003 0 0.006 0 0.006 0 8.937 3.99 16.943 10.284 22.334l0.041 0.032c6.979 5.951 47.1 35.562 153.018 35.562 52.034-1.858 101.013-12.753 146.133-31.155l-2.85 1.027c36.669-15.264 79.169-24.99 123.687-26.939l0.786-0.029c5.562-0.505 12.029-0.793 18.56-0.793 35.226 0 68.499 8.369 97.937 23.225l-1.246-0.57c5.010 4.678 11.763 7.551 19.182 7.551 4.248 0 8.276-0.942 11.887-2.626l-0.174 0.073c10.262-4.81 17.238-15.054 17.238-26.927 0-0.258-0.004-0.519-0.009-0.774l0.001 0.039v-342.556c0-0.003 0-0.006 0-0.006 0-8.937-3.99-16.943-10.284-22.334l-0.041-0.032c-6.798-5.951-46.915-35.562-152.873-35.562zM378.104 489.478c52.034-1.858 101.013-12.753 146.133-31.155l-2.85 1.027c36.669-15.264 79.169-24.99 123.687-26.939l0.786-0.029c3.446-0.159 7.485-0.247 11.548-0.247 33.392 0 65.364 6.086 94.865 17.21l-1.853-0.613v280.1c-29.151-8.118-62.622-12.786-97.187-12.786-2.593 0-5.178 0.027-7.758 0.078l0.386-0.006c-52.034 1.858-101.013 12.753-146.133 31.155l2.85-1.027c-36.669 15.264-79.169 24.99-123.687 26.939l-0.786 0.029c-3.446 0.159-7.485 0.247-11.548 0.247-33.392 0-65.364-6.086-94.865-17.21l1.853 0.613v-280.137c29.189 8.142 62.706 12.819 97.313 12.819 2.549 0 5.089-0.026 7.626-0.077l-0.378 0.006zM244.153 64c-16.231 0-29.393 13.158-29.393 29.393v0 361.222c0 16.231 13.158 29.393 29.393 29.393s29.393-13.158 29.393-29.393v0-361.222c0-16.231-13.158-29.393-29.393-29.393v0z" />
<glyph unicode="&#xe927;" glyph-name="save1" d="M505.565 160.654c-65.976 0-119.461 53.484-119.461 119.461s53.484 119.461 119.461 119.461c65.976 0 119.461-53.484 119.461-119.461v0c-0.066-65.948-53.512-119.394-119.454-119.461h-0.006zM505.565 336.221c-30.988 0-56.106-25.121-56.106-56.106s25.121-56.106 56.106-56.106c30.988 0 56.106 25.121 56.106 56.106v0c-0.044 30.968-25.137 56.061-56.104 56.106h-0.006zM620.788 460.234h-318.192c-26.583 0.022-48.126 21.567-48.15 48.147v142.547c0 0.012 0 0.026 0 0.041 0 26.598 21.552 48.165 48.147 48.187h313.443c0.042 0 0.092 0 0.144 0 13.252 0 25.243-5.389 33.906-14.094l4.755-4.755c8.706-8.658 14.095-20.646 14.095-33.894 0-0.055 0-0.114 0-0.169v0.008-137.874c-0.022-26.583-21.567-48.126-48.147-48.15h-0.003zM317.802 523.588h287.781v112.215h-287.781zM235.246 831.999h421.696c0.085 0 0.186 0.001 0.283 0.001 29.508 0 56.214-12.005 75.498-31.396l131.819-131.937c19.398-19.29 31.399-45.993 31.399-75.501 0-0.101 0-0.199-0.001-0.3v0.017-421.696c-0.066-59.169-48.018-107.118-107.178-107.187h-553.518c-59.184 0.066-107.142 48.040-107.187 107.222v553.592c0.066 59.169 48.018 107.118 107.178 107.187h0.006zM788.834 127.391c24.198 0.022 43.809 19.634 43.831 43.83v421.699c0 0.029 0 0.061 0 0.093 0 12.064-4.903 22.981-12.827 30.87l-131.934 131.934c-7.89 7.926-18.808 12.829-30.87 12.829-0.032 0-0.066 0-0.1 0h-421.689c-24.198-0.022-43.809-19.634-43.831-43.83v-553.591c0.022-24.198 19.634-43.809 43.83-43.831h0.003z" />
<glyph unicode="&#xe928;" glyph-name="delete" d="M447.782 191.11h0.474c11.916 0.263 21.474 9.985 21.474 21.941 0 0.169-0.003 0.338-0.006 0.505l0.001-0.025-8.771 419.639c-0.248 11.927-9.978 21.5-21.942 21.5-0.002 0-0.004 0-0.006 0h-0.474c-11.916-0.263-21.474-9.985-21.474-21.941 0-0.169 0.003-0.338 0.006-0.505l-0.001 0.025 8.771-419.639c0.248-11.927 9.978-21.5 21.942-21.5 0.002 0 0.004 0 0.006 0v0zM576.218 191.11c0.002 0 0.004 0 0.006 0 11.964 0 21.69 9.573 21.941 21.478l0.001 0.023 8.771 419.639c0.004 0.143 0.006 0.311 0.006 0.48 0 11.955-9.558 21.678-21.45 21.94l-0.025 0.001h-0.474c-0.002 0-0.004 0-0.006 0-11.964 0-21.69-9.573-21.941-21.478l-0.001-0.023-8.771-419.639c-0.004-0.143-0.006-0.311-0.006-0.48 0-11.955 9.558-21.678 21.45-21.94l0.025-0.001zM748.957 654.637c-0.167 0.006-0.365 0.006-0.56 0.006-11.887 0-21.591-9.358-22.142-21.111l-0.002-0.050-17.574-493.802c0-14.888-12.062-26.961-26.946-26.981h-339.304c-14.946 0.123-27.018 12.269-27.018 27.233 0 0.189 0.003 0.378 0.006 0.568l-0.001-0.030-17.702 492.852c-0.429 11.79-10.090 21.183-21.944 21.183-12.126 0-21.958-9.832-21.958-21.958 0-0.272 0.006-0.546 0.016-0.815l-0.002 0.040 17.543-492.249c0.036-39.142 31.758-70.866 70.898-70.902h339.433c0.018 0 0.042 0 0.066 0 38.853 0 70.395 31.309 70.77 70.074v0.035l17.574 493.011c0.008 0.232 0.014 0.501 0.014 0.774 0 11.847-9.387 21.499-21.126 21.93l-0.040 0.002zM793.289 742.448h-133.79v62.858c0 12.12-9.824 21.944-21.944 21.944v0h-250.828c-12.12 0-21.944-9.824-21.944-21.944v0-62.858h-133.885c-12.127 0-21.961-9.833-21.961-21.961s9.833-21.961 21.961-21.961v0h562.39c12.127 0 21.961 9.833 21.961 21.961s-9.833 21.961-21.961 21.961v0zM615.579 742.448h-206.908v40.88h206.908zM681.697 64.001h-339.269c-41.726 0.054-75.543 33.837-75.651 75.546v0.010l-17.543 492.155c-0.011 0.288-0.018 0.627-0.018 0.966 0 14.416 11.426 26.162 25.715 26.677l0.047 0.002h0.822c0.053 0 0.114 0.001 0.174 0.001 14.404 0 26.139-11.419 26.646-25.698l0.002-0.046 17.574-493.2c-0.006-0.179-0.007-0.39-0.007-0.604 0-12.294 9.898-22.278 22.16-22.419h339.441c12.243 0 22.167 9.924 22.167 22.167v0 0.159l17.574 493.802c0.498 14.334 12.239 25.761 26.646 25.761 0.341 0 0.678-0.006 1.014-0.018l-0.049 0.002h4.147v-0.348c12.366-2.492 21.55-13.271 21.55-26.194 0-0.342-0.006-0.685-0.018-1.026l0.002 0.049-17.574-492.946c-0.022-20.646-8.501-39.307-22.156-52.712l-0.011-0.011c-13.638-13.638-32.478-22.073-53.288-22.073-0.035 0-0.070 0-0.105 0h0.006zM275.643 649.823h-0.508c-9.224-0.343-16.572-7.905-16.572-17.183 0-0.215 0.005-0.43 0.012-0.642l-0.001 0.030 17.543-492.439c0.036-36.521 29.632-66.114 66.148-66.15h339.433c0.033 0 0.075 0 0.114 0 18.21 0 34.694 7.383 46.626 19.315v0c11.936 11.714 19.338 28.014 19.349 46.040v0.161l17.574 493.011c0.006 0.184 0.011 0.398 0.011 0.613 0 9.278-7.349 16.84-16.542 17.182l-0.030 0.001h-0.666c-9.216-0.145-16.686-7.426-17.13-16.554l-0.002-0.042-17.574-493.738c0-17.49-14.178-31.666-31.666-31.666v0h-339.333c-0.004 0-0.006 0-0.008 0-17.49 0-31.666 14.178-31.666 31.666 0 0.268 0.004 0.534 0.009 0.798l-0.001-0.040-17.766 493.136c-0.351 9.222-7.91 16.563-17.183 16.563-0.049 0-0.098 0-0.146-0.001h0.006zM576.187 186.297h-0.474c-14.539 0.263-26.226 12.114-26.226 26.691 0 0.201 0.003 0.402 0.006 0.605l-0.001-0.030 8.771 419.639c0.37 14.482 12.165 26.091 26.688 26.155h0.482c14.539-0.263 26.226-12.114 26.226-26.691 0-0.201-0.003-0.402-0.006-0.605l0.001 0.030-8.771-419.639c-0.403-14.444-12.17-26.010-26.656-26.094h-0.007zM585.338 649.857h-0.379c-9.354-0.051-16.95-7.52-17.194-16.823l-0.001-0.022-8.771-419.639c-0.004-0.114-0.006-0.247-0.006-0.383 0-9.377 7.505-16.998 16.832-17.19h0.399c9.354 0.051 16.95 7.52 17.194 16.823l0.001 0.022 8.771 419.639c0.004 0.114 0.006 0.247 0.006 0.383 0 9.377-7.505 16.998-16.832 17.19h-0.018zM448.286 186.297h-0.508c-14.522 0.083-26.308 11.682-26.694 26.119l-0.001 0.036-8.771 419.639c-0.005 0.173-0.006 0.374-0.006 0.576 0 14.545 11.634 26.372 26.102 26.688l0.030 0.001h0.57c14.527-0.066 26.323-11.673 26.694-26.121l0.001-0.034 8.771-419.639c0.005-0.173 0.006-0.374 0.006-0.576 0-14.545-11.634-26.372-26.102-26.688l-0.030-0.001zM438.534 649.857c-9.293-0.262-16.723-7.857-16.723-17.19 0-0.137 0.002-0.27 0.006-0.406v0.019l8.771-419.639c0.246-9.325 7.841-16.795 17.19-16.846h0.415c9.318 0.228 16.787 7.837 16.787 17.19 0 0.136-0.002 0.27-0.006 0.404v-0.019l-8.771 419.639c-0.246 9.325-7.841 16.795-17.19 16.846h-0.006zM793.195 693.744h-562.39c-14.753 0-26.71 11.958-26.71 26.71s11.958 26.71 26.71 26.71v0h129.136v58.139c0.018 14.736 11.958 26.677 26.694 26.694h250.829c14.736-0.018 26.677-11.958 26.694-26.694v-57.982h129.041c14.753 0 26.71-11.958 26.71-26.71s-11.958-26.71-26.71-26.71v0zM230.741 737.824c-9.506 0-17.211-7.706-17.211-17.211s7.706-17.211 17.211-17.211h562.39c9.506 0 17.211 7.706 17.211 17.211s-7.706 17.211-17.211 17.211h-138.539v67.482c-0.018 9.488-7.706 17.178-17.192 17.194h-250.829c-9.488-0.018-17.178-7.706-17.194-17.192v-67.482zM620.233 737.824h-216.405v50.254h216.405zM413.329 747.322h197.405v31.382h-197.405z" />
<glyph unicode="&#xe929;" glyph-name="google" d="M516.52 64v0c-210.905 1.554-381.276 172.882-381.276 384.005 0 106.038 42.978 202.037 112.466 271.529l-0.001-0.001c68.694 69.019 163.596 111.906 268.515 112.463l0.107 0.001h4.19c88.074-0.105 168.942-30.864 232.535-82.176l-0.709 0.554c9.77-7.877 16.138-19.627 16.757-32.885l0.005-0.101c0.030-0.597 0.044-1.299 0.044-2.002 0-12.534-5.207-23.854-13.578-31.914l-0.015-0.014-64.296-61.902c-7.924-7.661-18.729-12.38-30.641-12.38-0.038 0-0.076 0-0.114 0h0.006c-10.234 0.042-19.63 3.595-27.054 9.52l0.089-0.066c-30.485 24.045-69.452 38.57-111.813 38.57-0.682 0-1.363-0.005-2.046-0.011l0.102 0.001c-55.29-0.361-105.518-21.732-143.166-56.52l0.143 0.13c-40.12-37.051-65.157-89.922-65.157-148.639 0-1.458 0.017-2.911 0.046-4.362l-0.005 0.217s0 0 0-0.158c-0.004-0.399-0.006-0.87-0.006-1.338 0-113.708 91.434-206.062 204.786-207.551l0.14-0.002c3.798-0.288 8.226-0.452 12.694-0.452 74.274 0 137.934 45.438 164.705 110.034l0.435 1.182c0.193 0.427 0.306 0.93 0.306 1.456 0 0.775-0.245 1.494-0.659 2.083l0.006-0.011c-0.562 0.915-1.556 1.515-2.693 1.515-0.040 0-0.078-0.001-0.116-0.003h-150.893c-0.009 0-0.019 0-0.030 0-24.47 0-44.315 19.801-44.386 44.253v77.346c0.018 24.499 19.884 44.356 44.386 44.356 0.011 0 0.021 0 0.032 0h301.793c22.746-0.205 41.428-17.329 44.082-39.385l0.020-0.213c1.585-12.33 2.49-26.594 2.49-41.070 0-0.203 0-0.406-0.001-0.609v0.031c0.030-221.054-153.070-375.478-372.233-375.478zM520.552 791.077h-3.81c-188.382-1.429-340.541-154.47-340.541-343.052 0-93.827 37.667-178.856 98.706-240.793l-0.042 0.042c61.511-62.762 147.006-101.82 241.625-102.318l0.094-0.001c3.18-0.112 6.918-0.174 10.67-0.174 89.303 0 170.248 35.791 229.267 93.812l-0.045-0.044c28.552 29.292 51.328 64.365 66.389 103.283l0.714 2.094c15.268 39.304 24.113 84.795 24.113 132.352 0 1.094-0.006 2.186-0.015 3.277l0.002-0.167c0.001 0.19 0.001 0.414 0.001 0.642 0 12.688-0.789 25.19-2.322 37.46l0.15-1.464c-0.090 1.92-1.59 3.462-3.484 3.621l-0.015 0.001h-301.637c-1.878 0-3.402-1.523-3.402-3.402v0-77.338c0-1.878 1.523-3.402 3.402-3.402v0h150.896c0.035 0 0.078 0 0.119 0 15.126 0 28.477-7.615 36.421-19.223l0.098-0.15c4.83-7.032 7.71-15.729 7.71-25.098 0-5.958-1.167-11.646-3.282-16.845l0.107 0.299c-14.914-36.948-38.621-67.701-68.607-90.666l-0.51-0.376c-38.706-28.545-87.344-45.687-139.986-45.687-2.453 0-4.894 0.038-7.328 0.112l0.356-0.007h-0.222c-136.006 1.386-245.728 111.962-245.728 248.165 0 0.679 0.004 1.36 0.007 2.037l-0.001-0.103c-0.011 0.867-0.018 1.89-0.018 2.914 0 70.916 30.042 134.815 78.094 179.669l0.143 0.133c44.858 41.514 104.982 67.098 171.078 67.479h0.078c0.534 0.006 1.169 0.006 1.801 0.006 52.014 0 99.846-17.897 137.682-47.866l-0.462 0.354c0.414-0.333 0.942-0.535 1.52-0.535 0.018 0 0.039 0 0.056 0.001h-0.004c0.919 0.014 1.751 0.383 2.363 0.978l-0.001-0.001 64.422 61.964c0.627 0.578 1.016 1.401 1.016 2.318 0 0.082-0.004 0.162-0.008 0.246l0.001-0.010c-0.056 1.165-0.619 2.189-1.471 2.862l-0.007 0.006c-55.916 45.146-127.83 72.508-206.129 72.614h-0.023z" />
<glyph unicode="&#xe92a;" glyph-name="eventible" d="M164.767 895.999v-126.667c-0.672-3.208-1.060-6.896-1.068-10.676v-88.544c0-0.042 0-0.092 0-0.143 0-29.906 24.242-54.148 54.148-54.148 0.050 0 0.101 0 0.15 0h587.867c0.042 0 0.092 0 0.143 0 29.906 0 54.148 24.242 54.148 54.148 0 0.050 0 0.101 0 0.15v-0.008 88.503c0 0.042 0 0.092 0 0.143 0 29.906-24.242 54.148-54.148 54.148-0.050 0-0.101 0-0.15 0h-512.645zM219.059 546.506c-0.042 0-0.092 0-0.143 0-29.906 0-54.148-24.242-54.148-54.148 0-0.050 0-0.101 0-0.15v0.008-88.539c0-0.042 0-0.092 0-0.143 0-29.906 24.242-54.148 54.148-54.148 0.050 0 0.101 0 0.15 0h372.517c0.042 0 0.092 0 0.143 0 29.906 0 54.148 24.242 54.148 54.148 0 0.050 0 0.101 0 0.15v-0.008 88.539c0 0.042 0 0.092 0 0.143 0 29.906-24.242 54.148-54.148 54.148-0.050 0-0.101 0-0.15 0h0.008zM217.992 280.104c-0.042 0-0.092 0-0.143 0-29.906 0-54.148-24.242-54.148-54.148 0-0.050 0-0.101 0-0.15v0.008-88.432c0-0.042 0-0.092 0-0.143 0-29.906 24.242-54.148 54.148-54.148 0.050 0 0.101 0 0.15 0h512.645l128.59-83.092v126.703c0.672 3.208 1.060 6.896 1.068 10.676v88.544c0 0.042 0 0.092 0 0.143 0 29.906-24.242 54.148-54.148 54.148-0.050 0-0.101 0-0.15 0h0.008z" />
<glyph unicode="&#xe92b;" glyph-name="push_pin" d="M327.708 832h368.255c15.254-0.047 29.079-6.126 39.223-15.971l-0.015 0.014c10.995-9.995 17.868-24.354 17.868-40.319 0-0.248-0.002-0.498-0.006-0.745l0.001 0.038c0.004-0.21 0.006-0.459 0.006-0.707 0-15.966-6.873-30.324-17.825-40.278l-0.043-0.041c-10.098-9.799-23.862-15.87-39.043-15.957h-17.136v-163.482c-0.003-0.231-0.005-0.503-0.005-0.774 0-16.254 4.67-31.422 12.738-44.226l-0.201 0.342c8.354-13.484 19.539-24.461 32.785-32.329l0.44-0.244c9.247-5.567 20.127-9.482 31.754-11.028l0.43-0.046c18.4-2.793 32.335-18.5 32.335-37.464 0-0.174-0.002-0.349-0.005-0.522v0.027-40.789c0-0.054 0.001-0.114 0.001-0.178 0-20.783-16.848-37.633-37.633-37.633 0 0 0 0-0.001 0h-182.714v-244.401l-32.422-30.874c-6.741-6.444-15.9-10.41-25.985-10.41-10.385 0-19.784 4.206-26.595 11.007v0l-30.666 30.546v244.136h-180.928c-20.77 0.018-37.602 16.858-37.602 37.633 0 0.042 0 0.084 0 0.126v-0.006 41.117c-0.001 0.068-0.001 0.15-0.001 0.234 0 19.217 13.424 35.298 31.41 39.374l0.27 0.053c12.823 2.377 24.11 5.666 34.901 9.936l-1.256-0.438c13.497 7.542 24.4 18.291 31.912 31.249l0.213 0.401 0.269 0.447c7.779 12.387 12.391 27.445 12.391 43.58 0 0.378-0.003 0.758-0.006 1.134l0.001-0.056v163.569h-17.058c-15.254 0.047-29.079 6.126-39.223 15.971l0.015-0.014c-10.995 9.995-17.868 24.354-17.868 40.319 0 0.248 0.002 0.498 0.006 0.745l-0.001-0.038c-0.004 0.21-0.006 0.459-0.006 0.707 0 15.966 6.873 30.324 17.825 40.278l0.043 0.041c10.104 9.808 23.881 15.878 39.077 15.957h0.017zM695.965 759.713c4.038 0.052 7.681 1.702 10.331 4.348v0l0.714 0.654c2.622 2.355 4.261 5.754 4.261 9.535 0 0.102-0.002 0.202-0.005 0.305v-0.016 0.894c0.003 0.087 0.004 0.186 0.004 0.289 0 3.783-1.639 7.182-4.249 9.525l-0.012 0.010-0.714 0.654c-2.684 2.679-6.389 4.338-10.479 4.348h-367.96c-4.082-0.018-7.771-1.674-10.45-4.348v0l-0.714-0.654c-2.622-2.355-4.261-5.754-4.261-9.535 0-0.102 0.002-0.202 0.005-0.305v0.016-0.894c-0.003-0.087-0.004-0.186-0.004-0.289 0-3.783 1.639-7.182 4.249-9.525l0.012-0.010 0.714-0.654c2.684-2.679 6.389-4.338 10.479-4.348h58.684v-204.804c0.006-0.462 0.009-1.012 0.009-1.559 0-24.222-6.919-46.83-18.893-65.95l0.306 0.522-0.269-0.416c-11.658-19.722-27.992-35.562-47.527-46.301l-0.642-0.325c-12.365-5.524-26.802-10.062-41.842-12.906l-1.239-0.196v-36.413h180.869c20.707-0.018 37.502-16.758 37.602-37.446v-230.984l15.63-15.63 16.674 15.929v230.648c0.085 20.708 16.883 37.468 37.602 37.482h182.716v34.030c-16.516 2.723-31.302 8.288-44.514 16.216l0.57-0.318c-19.614 11.611-35.647 27.321-47.298 46.041l-0.338 0.582c-11.756 18.665-18.733 41.367-18.733 65.696 0 0.433 0.003 0.866 0.006 1.297l-0.001-0.066v204.864z" />
<glyph unicode="&#xe92c;" glyph-name="industry" d="M881.428 591.652c-4.309 2.601-9.511 4.142-15.077 4.142-5.304 0-10.28-1.398-14.584-3.847l0.146 0.078-221.973-123.328v97.504c0 0.012 0 0.026 0 0.041 0 16.301-13.214 29.514-29.514 29.514-4.83 0-9.388-1.158-13.41-3.215l0.166 0.078-252.595-126.353v336.225c0 16.301-13.214 29.514-29.514 29.514h-147.565c-16.301 0-29.514-13.214-29.514-29.514v0-708.974c0-16.301 13.214-29.514 29.514-29.514h708.974c16.301 0 29.514 13.214 29.514 29.514v0 472.651c0 0.006 0 0.018 0 0.025 0 10.776-5.777 20.203-14.401 25.355l-0.136 0.075zM836.902 123.134h-649.875v649.838h88.539v-354.523c0-0.012 0-0.026 0-0.041 0-16.301 13.214-29.514 29.514-29.514 4.83 0 9.388 1.158 13.41 3.215l-0.166-0.078 252.703 126.39v-99.976c0-0.018 0-0.036 0-0.054 0-16.301 13.214-29.514 29.514-29.514 5.286 0 10.242 1.387 14.535 3.822l-0.147-0.078 221.973 123.328zM482.378 329.836c-16.301 0-29.514-13.214-29.514-29.514v0-88.539c0-16.301 13.214-29.514 29.514-29.514s29.514 13.214 29.514 29.514v88.539c0 16.301-13.214 29.514-29.514 29.514v0zM718.703 182.271c16.301 0 29.514 13.214 29.514 29.514v0 88.539c0 16.301-13.214 29.514-29.514 29.514s-29.514-13.214-29.514-29.514v0-88.539c0-16.301 13.214-29.514 29.514-29.514v0zM364.213 329.836c-16.301 0-29.514-13.214-29.514-29.514v-88.539c0-16.301 13.214-29.514 29.514-29.514s29.514 13.214 29.514 29.514v0 88.539c0 16.301-13.214 29.514-29.514 29.514v0zM571.027 300.322v-88.539c0-16.301 13.214-29.514 29.514-29.514s29.514 13.214 29.514 29.514v0 88.539c0 16.301-13.214 29.514-29.514 29.514s-29.514-13.214-29.514-29.514v0z" />
<glyph unicode="&#xe92d;" glyph-name="microphone1" d="M512.090 337.653c80.426 0 145.625 65.198 145.625 145.625v203.101c0 80.426-65.198 145.625-145.625 145.625s-145.625-65.198-145.625-145.625v0-203.101c0.102-80.383 65.238-145.522 145.615-145.625h0.009zM413.988 686.375c0 54.163 43.909 98.072 98.072 98.072s98.072-43.909 98.072-98.072v0-203.101c0-54.163-43.909-98.072-98.072-98.072s-98.072 43.909-98.072 98.072v0zM773.32 562.535h-26.182c0 0 0 0 0 0-7.795 0-14.118-6.319-14.118-14.118 0-0.010 0-0.020 0-0.030v0.002-78.4c-0.355-122.125-99.438-220.987-221.613-220.987-7.65 0-15.21 0.389-22.662 1.146l0.937-0.078c-112.509 14.378-198.595 109.531-198.595 224.791 0 1.538 0.016 3.071 0.045 4.602l-0.005-0.229v69.157c0 7.813-6.332 14.146-14.146 14.146v0h-26.154c-0.008 0-0.018 0-0.030 0-7.813 0-14.146-6.332-14.146-14.146 0 0 0 0 0 0v0-65.739c-0.022-1.323-0.034-2.884-0.034-4.446 0-140.642 102.276-257.395 236.509-279.943l1.664-0.232 10.014-1.635v-77.982h-103.333c-7.806-0.018-14.13-6.341-14.146-14.144v-26.124c0-7.813 6.332-14.146 14.146-14.146h261.232c7.813 0 14.146 6.332 14.146 14.146v0 26.122c0 7.813-6.332 14.146-14.146 14.146v0h-103.483v77.598l10.401 1.426c134.324 20.402 236.287 134.383 237.751 272.46l0.002 0.152v78.341c-0.018 7.817-6.356 14.146-14.178 14.146 0 0 0 0 0 0v0z" />
<glyph unicode="&#xe92e;" glyph-name="media-pause" d="M288.001 832.002h96c35.346 0 64.001-28.653 64.001-64.001v0-640.002c0-35.346-28.653-64.001-64.001-64.001v0h-96c-35.346 0-64.001 28.653-64.001 64.001v0 640.002c0 35.346 28.653 64.001 64.001 64.001v0zM639.999 832.002h96c35.346 0 64.001-28.653 64.001-64.001v0-640.002c0-35.346-28.653-64.001-64.001-64.001v0h-96c-35.346 0-64.001 28.653-64.001 64.001v0 640.002c0 35.346 28.653 64.001 64.001 64.001v0z" />
<glyph unicode="&#xe92f;" glyph-name="media-record" d="M255.999 832h511.998c70.693 0 127.999-57.306 127.999-127.999v-511.998c0-70.693-57.306-127.999-127.999-127.999h-511.998c-70.693 0-127.999 57.306-127.999 127.999v511.998c0 70.693 57.306 127.999 127.999 127.999z" />
<glyph unicode="&#xe930;" glyph-name="media-play" d="M855.825 447.999c0.001-0.148 0.002-0.319 0.002-0.495 0-28.031-15.23-52.506-37.866-65.598l-0.366-0.195-534.737-307.471c-10.966-6.439-24.152-10.242-38.227-10.242-42.225 0-76.458 34.23-76.458 76.458 0 0.027 0 0.054 0 0.078v614.936c0 0.021 0 0.048 0 0.075 0 42.225 34.23 76.458 76.458 76.458 14.075 0 27.262-3.804 38.588-10.438l-0.361 0.196 534.621-307.471c23.064-13.273 38.345-37.782 38.345-65.859 0-0.15-0.001-0.302-0.002-0.451v0.023z" />
<glyph unicode="&#xe931;" glyph-name="time1" d="M512 832.001c212.085-0.042 384-171.978 384-384.071 0-0.013 0-0.025 0-0.038v0.002c-0.061-212.032-171.96-383.894-384-383.894-212.077 0-384 171.922-384 384s171.922 384 384 384v0zM512 120.887c180.62 0 327.042 146.422 327.042 327.042s-146.422 327.042-327.042 327.042c-180.62 0-327.042-146.422-327.042-327.042 0-0.013 0-0.025 0-0.038v0.002c0.203-180.534 146.509-326.826 327.027-327.007h0.018zM642.746 308.375l-10.378-10.378c-4.272-4.126-10.098-6.668-16.518-6.668-5.972 0-11.431 2.202-15.609 5.838l0.030-0.025-134.062 117.194c-9.473 9.499-15.354 22.582-15.442 37.038v0.018l12.377 211.349c0.839 12.32 10.96 22.018 23.381 22.182h14.639c12.424-0.13 22.539-9.834 23.322-22.078l0.005-0.068 10.164-175.826c1.533-14.86 7.254-28.148 15.946-38.946l-0.112 0.142 93.156-107.492c3.619-4.17 5.826-9.654 5.826-15.651 0-6.462-2.562-12.328-6.726-16.633l0.006 0.006z" />
<glyph unicode="&#xe932;" glyph-name="media-replay" d="M645.8 385.071c0.001-0.065 0.001-0.138 0.001-0.211 0-12.366-6.731-23.16-16.73-28.917l-0.162-0.086-148.72-85.506c-4.818-2.821-10.614-4.486-16.796-4.486-18.606 0-33.69 15.082-33.69 33.69 0 0.006 0 0.010 0 0.018v171.016c0.018 18.592 15.094 33.654 33.69 33.654 6.17 0 11.953-1.659 16.926-4.554l-0.162 0.087 148.72-85.506c10.177-5.838 16.922-16.642 16.922-29.022 0-0.057 0-0.114-0.001-0.174v0.007zM845.754 397.741c-0.006-184.316-149.422-333.735-333.74-333.735-109.264 0-206.26 52.505-267.143 133.661l-0.618 0.863c-41.273 55.351-66.079 125.094-66.079 200.632 0 35.893 5.599 70.479 15.978 102.929l-0.66-2.393c2.982 9.774 11.922 16.768 22.494 16.768 12.966 0 23.474-10.509 23.474-23.474 0-2.394-0.357-4.698-1.023-6.871l0.042 0.166c-8.454-26.033-13.327-55.985-13.327-87.076 0-65.021 21.318-125.062 57.351-173.515l-0.552 0.775c52.848-70.515 136.219-115.655 230.137-115.655 158.392 0 286.793 128.404 286.793 286.793s-128.404 286.793-286.793 286.793c-0.002 0-0.006 0-0.006 0h-120.748l60.857-60.857c4.41-4.273 7.151-10.253 7.151-16.868 0-12.966-10.509-23.473-23.473-23.473-6.618 0-12.594 2.741-16.865 7.146l-100.913 100.913c-2.142 2.146-3.874 4.704-5.065 7.543l-0.057 0.155v0.342c-1.058 2.538-1.674 5.478-1.674 8.57s0.615 6.033 1.728 8.718l-0.054-0.15v0.342c1.249 2.994 2.982 5.553 5.123 7.698v0l100.907 100.907c4.218 4.086 9.978 6.606 16.322 6.606 12.966 0 23.473-10.509 23.473-23.473 0-6.345-2.518-12.102-6.609-16.326l-60.848-60.848h120.748c184.235-0.21 333.53-149.505 333.74-333.722v-0.018z" />
<glyph unicode="&#xe933;" glyph-name="delete1" d="M447.782 191.11h0.474c11.916 0.263 21.474 9.985 21.474 21.941 0 0.169-0.003 0.338-0.006 0.505l0.001-0.025-8.771 419.639c-0.248 11.927-9.978 21.5-21.942 21.5-0.002 0-0.004 0-0.006 0h-0.474c-11.916-0.263-21.474-9.985-21.474-21.941 0-0.169 0.003-0.338 0.006-0.505l-0.001 0.025 8.771-419.639c0.248-11.927 9.978-21.5 21.942-21.5 0.002 0 0.004 0 0.006 0v0zM576.218 191.11c0.002 0 0.004 0 0.006 0 11.964 0 21.69 9.573 21.941 21.478l0.001 0.023 8.771 419.639c0.004 0.143 0.006 0.311 0.006 0.48 0 11.955-9.558 21.678-21.45 21.94l-0.025 0.001h-0.474c-0.002 0-0.004 0-0.006 0-11.964 0-21.69-9.573-21.941-21.478l-0.001-0.023-8.771-419.639c-0.004-0.143-0.006-0.311-0.006-0.48 0-11.955 9.558-21.678 21.45-21.94l0.025-0.001zM748.957 654.637c-0.167 0.006-0.365 0.006-0.56 0.006-11.887 0-21.591-9.358-22.142-21.111l-0.002-0.050-17.574-493.802c0-14.888-12.062-26.961-26.946-26.981h-339.304c-14.946 0.123-27.018 12.269-27.018 27.233 0 0.189 0.003 0.378 0.006 0.568l-0.001-0.030-17.702 492.852c-0.429 11.79-10.090 21.183-21.944 21.183-12.126 0-21.958-9.832-21.958-21.958 0-0.272 0.006-0.546 0.016-0.815l-0.002 0.040 17.543-492.249c0.036-39.142 31.758-70.866 70.898-70.902h339.433c0.018 0 0.042 0 0.066 0 38.853 0 70.395 31.309 70.77 70.074v0.035l17.574 493.011c0.008 0.232 0.014 0.501 0.014 0.774 0 11.847-9.387 21.499-21.126 21.93l-0.040 0.002zM793.289 742.448h-133.79v62.858c0 12.12-9.824 21.944-21.944 21.944v0h-250.828c-12.12 0-21.944-9.824-21.944-21.944v0-62.858h-133.885c-12.127 0-21.961-9.833-21.961-21.961s9.833-21.961 21.961-21.961v0h562.39c12.127 0 21.961 9.833 21.961 21.961s-9.833 21.961-21.961 21.961v0zM615.579 742.448h-206.908v40.88h206.908zM681.697 64.001h-339.269c-41.726 0.054-75.543 33.837-75.651 75.546v0.010l-17.543 492.155c-0.011 0.288-0.018 0.627-0.018 0.966 0 14.416 11.426 26.162 25.715 26.677l0.047 0.002h0.822c0.053 0 0.114 0.001 0.174 0.001 14.404 0 26.139-11.419 26.646-25.698l0.002-0.046 17.574-493.2c-0.006-0.179-0.007-0.39-0.007-0.604 0-12.294 9.898-22.278 22.16-22.419h339.441c12.243 0 22.167 9.924 22.167 22.167v0 0.159l17.574 493.802c0.498 14.334 12.239 25.761 26.646 25.761 0.341 0 0.678-0.006 1.014-0.018l-0.049 0.002h4.147v-0.348c12.366-2.492 21.55-13.271 21.55-26.194 0-0.342-0.006-0.685-0.018-1.026l0.002 0.049-17.574-492.946c-0.022-20.646-8.501-39.307-22.156-52.712l-0.011-0.011c-13.638-13.638-32.478-22.073-53.288-22.073-0.035 0-0.070 0-0.105 0h0.006zM275.643 649.823h-0.508c-9.224-0.343-16.572-7.905-16.572-17.183 0-0.215 0.005-0.43 0.012-0.642l-0.001 0.030 17.543-492.439c0.036-36.521 29.632-66.114 66.148-66.15h339.433c0.033 0 0.075 0 0.114 0 18.21 0 34.694 7.383 46.626 19.315v0c11.936 11.714 19.338 28.014 19.349 46.040v0.161l17.574 493.011c0.006 0.184 0.011 0.398 0.011 0.613 0 9.278-7.349 16.84-16.542 17.182l-0.030 0.001h-0.666c-9.216-0.145-16.686-7.426-17.13-16.554l-0.002-0.042-17.574-493.738c0-17.49-14.178-31.666-31.666-31.666v0h-339.333c-0.004 0-0.006 0-0.008 0-17.49 0-31.666 14.178-31.666 31.666 0 0.268 0.004 0.534 0.009 0.798l-0.001-0.040-17.766 493.136c-0.351 9.222-7.91 16.563-17.183 16.563-0.049 0-0.098 0-0.146-0.001h0.006zM576.187 186.297h-0.474c-14.539 0.263-26.226 12.114-26.226 26.691 0 0.201 0.003 0.402 0.006 0.605l-0.001-0.030 8.771 419.639c0.37 14.482 12.165 26.091 26.688 26.155h0.482c14.539-0.263 26.226-12.114 26.226-26.691 0-0.201-0.003-0.402-0.006-0.605l0.001 0.030-8.771-419.639c-0.403-14.444-12.17-26.010-26.656-26.094h-0.007zM585.338 649.857h-0.379c-9.354-0.051-16.95-7.52-17.194-16.823l-0.001-0.022-8.771-419.639c-0.004-0.114-0.006-0.247-0.006-0.383 0-9.377 7.505-16.998 16.832-17.19h0.399c9.354 0.051 16.95 7.52 17.194 16.823l0.001 0.022 8.771 419.639c0.004 0.114 0.006 0.247 0.006 0.383 0 9.377-7.505 16.998-16.832 17.19h-0.018zM448.286 186.297h-0.508c-14.522 0.083-26.308 11.682-26.694 26.119l-0.001 0.036-8.771 419.639c-0.005 0.173-0.006 0.374-0.006 0.576 0 14.545 11.634 26.372 26.102 26.688l0.030 0.001h0.57c14.527-0.066 26.323-11.673 26.694-26.121l0.001-0.034 8.771-419.639c0.005-0.173 0.006-0.374 0.006-0.576 0-14.545-11.634-26.372-26.102-26.688l-0.030-0.001zM438.534 649.857c-9.293-0.262-16.723-7.857-16.723-17.19 0-0.137 0.002-0.27 0.006-0.406v0.019l8.771-419.639c0.246-9.325 7.841-16.795 17.19-16.846h0.415c9.318 0.228 16.787 7.837 16.787 17.19 0 0.136-0.002 0.27-0.006 0.404v-0.019l-8.771 419.639c-0.246 9.325-7.841 16.795-17.19 16.846h-0.006zM793.195 693.744h-562.39c-14.753 0-26.71 11.958-26.71 26.71s11.958 26.71 26.71 26.71v0h129.136v58.139c0.018 14.736 11.958 26.677 26.694 26.694h250.829c14.736-0.018 26.677-11.958 26.694-26.694v-57.982h129.041c14.753 0 26.71-11.958 26.71-26.71s-11.958-26.71-26.71-26.71v0zM230.741 737.824c-9.506 0-17.211-7.706-17.211-17.211s7.706-17.211 17.211-17.211h562.39c9.506 0 17.211 7.706 17.211 17.211s-7.706 17.211-17.211 17.211h-138.539v67.482c-0.018 9.488-7.706 17.178-17.192 17.194h-250.829c-9.488-0.018-17.178-7.706-17.194-17.192v-67.482zM620.233 737.824h-216.405v50.254h216.405zM413.329 747.322h197.405v31.382h-197.405z" />
<glyph unicode="&#xe934;" glyph-name="close" d="M803.583 128.003c-0.005 0-0.015 0-0.024 0-7.849 0-14.955 3.179-20.105 8.321v0l-583.132 583.132c-5.145 5.145-8.325 12.255-8.325 20.106s3.182 14.961 8.325 20.106v0c5.145 5.145 12.255 8.325 20.106 8.325s14.961-3.182 20.106-8.325l583.132-583.132c5.135-5.145 8.306-12.245 8.306-20.090 0-15.695-12.706-28.417-28.395-28.445h-0.004zM220.451 128.003c-0.005 0-0.015 0-0.024 0-7.849 0-14.955 3.179-20.105 8.321v0c-5.145 5.145-8.325 12.255-8.325 20.106s3.182 14.961 8.325 20.106l583.132 583.132c5.145 5.145 12.255 8.325 20.106 8.325s14.961-3.182 20.106-8.325v0c5.145-5.145 8.325-12.255 8.325-20.106s-3.182-14.961-8.325-20.106l-583.132-583.132c-5.145-5.136-12.245-8.315-20.089-8.321h-0.001z" />
<glyph unicode="&#xe935;" glyph-name="tick" d="M352.57 132.819l-256.672 264.964c-5.856 5.808-9.481 13.859-9.481 22.758 0 17.7 14.348 32.049 32.049 32.049 9.255 0 17.595-3.924 23.445-10.198l0.017-0.019 211.363-218.172 530.168 530.168c5.736 5.457 13.513 8.814 22.075 8.814 17.7 0 32.049-14.348 32.049-32.049 0-8.562-3.357-16.339-8.827-22.088l0.014 0.014z" />
<glyph unicode="&#xe936;" glyph-name="link" d="M512.015 832c212.057-0.040 383.946-171.954 383.946-384.016 0-104.22-41.517-198.744-108.918-267.933l0.080 0.083c-68.515-70.71-163.985-114.956-269.79-116.131l-0.22-0.003h-5.1c-212.070 0.022-383.977 171.942-383.977 384.016 0 104.221 41.517 198.744 108.918 267.933l-0.080-0.083c68.515 70.704 163.986 114.942 269.793 116.104l0.217 0.002zM512.015 111.971h4.56c184.597 1.292 333.739 151.236 333.739 336.013 0 185.579-150.441 336.019-336.019 336.019-0.801 0-1.602-0.004-2.404-0.007l0.124 0.001h-4.5c-183.631-2.535-331.518-151.987-331.518-335.982 0-93.631 38.298-178.319 100.083-239.25l0.039-0.038c60.33-59.802 143.393-96.754 235.086-96.754 0.285 0 0.57 0 0.858 0.001h-0.043zM650.739 454.316l56.431 56.431c17.194 16.966 27.846 40.529 27.846 66.576 0 51.646-41.867 93.513-93.513 93.513-26.047 0-49.61-10.65-66.566-27.834l-56.442-56.442c-16.652-16.878-26.936-40.073-26.936-65.67 0-51.646 41.867-93.513 93.513-93.513 25.598 0 48.794 10.286 65.68 26.946l-0.010-0.010zM607.988 613.321c8.861 8.861 21.102 14.341 34.622 14.341 27.042 0 48.963-21.92 48.963-48.963 0-13.52-5.479-25.76-14.341-34.622v0l-59.523-59.763c-8.861-8.861-21.102-14.341-34.622-14.341-27.042 0-48.963 21.92-48.963 48.963 0 13.52 5.479 25.76 14.341 34.622v0zM449.132 252.798l56.583 56.463c16.928 16.926 27.4 40.309 27.4 66.138 0 51.652-41.872 93.522-93.522 93.522-25.821 0-49.199-10.466-66.123-27.384l-56.431-56.431c-17.194-16.966-27.846-40.529-27.846-66.576 0-51.646 41.867-93.513 93.513-93.513 26.047 0 49.61 10.65 66.566 27.834l0.010 0.010zM406.382 411.534c8.868 8.879 21.126 14.372 34.666 14.372 27.058 0 48.994-21.935 48.994-48.994 0-13.518-5.475-25.758-14.328-34.623l-59.522-59.522c-8.882-8.91-21.167-14.426-34.742-14.426-27.089 0-49.048 21.959-49.048 49.048 0 13.515 5.466 25.751 14.308 34.624l-0.002-0.002zM470.733 375.712l113.586 113.586c3.715 3.918 6.003 9.222 6.003 15.064 0 12.096-9.806 21.901-21.901 21.901-5.838 0-11.146-2.286-15.073-6.011l0.009 0.008-113.586-113.586c-3.966-3.966-6.418-9.444-6.418-15.497 0-12.102 9.81-21.915 21.915-21.915 6.052 0 11.53 2.454 15.497 6.418v0z" />
<glyph unicode="&#xe937;" glyph-name="reply" d="M939.065 157.35c-15.696 41.781-39.846 77.228-70.555 105.701l-0.176 0.161c-29.329 26.627-63.216 48.953-100.223 65.566l-2.42 0.971c-33.703 15.569-73.369 29.223-114.573 38.898l-4.336 0.858c-31.962 7.623-71.354 14.233-111.471 18.405l-4.184 0.352q-43.587 4.554-87.428 5.53h-8.314c-14.73-0.201-26.616-12.088-26.816-26.798v-92.109c0-4.914 0.253-9.939 0-14.855 0.361 2.421 0.613 4.734 0.976 7.227-0.353-2.69-1.038-5.129-2.021-7.408l0.069 0.179 2.674 6.434c-0.674-1.437-1.325-2.623-2.039-3.764l0.087 0.149c-1.516-2.784 2.133 2.964 2.421 3.037-0.542-0.253-1.264-1.337-1.7-1.771l-1.445-1.337c-1.627-1.7 5.168 3.397 3.037 2.421-1.337-0.613-2.494-1.516-3.829-2.133l6.434 2.674c-2.175-0.929-4.708-1.65-7.348-2.040l-0.169-0.020 7.227 0.976c-0.882-0.087-1.908-0.134-2.946-0.134s-2.065 0.048-3.075 0.144l0.129-0.009 7.227-0.976c-2.556 0.343-4.873 1.002-7.036 1.944l0.169-0.065 6.434-2.674c-1.156 0.542-2.241 1.156-3.325 1.7-3.615 1.88 1.627-1.084 2.241-1.88v0c-0.329 0.319-0.683 0.613-1.056 0.885l-0.027 0.019-5.024 4.193-19.987 16.843q-33.142 27.758-66.249 55.623l-80.634 67.261-68.671 57.829c-10.264 8.566-20.638 16.986-30.757 25.733-0.542 0.433-0.976 0.904-1.445 1.337l-1.264 1.337c-2.855 2.855 2.313-2.494 1.952-2.603s-2.061 3.615-2.241 4.12l2.674-6.434c-0.801 1.914-1.42 4.145-1.753 6.465l-0.017 0.148c0.361-2.421 0.613-4.734 0.976-7.227-0.126 1.019-0.2 2.2-0.2 3.397s0.073 2.378 0.215 3.536l-0.016-0.139c-0.361-2.421-0.613-4.734-0.976-7.227 0.4 2.495 1.019 4.72 1.848 6.837l-0.077-0.223-2.674-6.434c0.542 1.264 1.445 2.421 1.88 3.615 1.084 2.784-4.193-4.734-2.061-2.603l1.264 1.337 1.88 1.771c0.268 0.26 0.564 0.499 0.88 0.709l0.023 0.016c1.516 1.337 3.144 2.603 4.662 3.829l18.938 15.831 65.489 55.152 150.098 125.811c10.627 8.927 21.685 17.602 32.020 26.816v0c-6.542-5.817-1.88-1.516 1.084 0l-6.434-2.674c1.984 0.83 4.294 1.487 6.698 1.859l0.168 0.022-7.227-0.976c0.882 0.087 1.908 0.134 2.946 0.134s2.065-0.048 3.075-0.144l-0.129 0.009-7.227 0.976c2.809-0.41 5.342-1.13 7.722-2.136l-0.204 0.077-6.434 2.674c1.156-0.542 2.313-1.264 3.615-1.88 2.784-1.445-2.855 2.241-3.037 2.494 0.538-0.63 1.156-1.17 1.846-1.607l0.033-0.020 1.337-1.445c1.771-1.516-3.397 5.168-2.313 3.037 0.723-1.337 1.627-2.603 2.241-3.94l-2.674 6.434c0.914-2.1 1.597-4.539 1.936-7.087l0.016-0.14c-0.361 2.421-0.613 4.734-0.976 7.227 0.3-5.398 0.468-11.714 0.468-18.073s-0.169-12.674-0.505-18.944l0.037 0.876v-69.646c0.278-14.697 12.119-26.54 26.791-26.816l0.026-0.001q27.612-0.686 55.152-3.615c6.255-0.613 12.433-1.445 18.613-2.241l-7.227 0.976c43.079-5.772 81.767-15.030 118.849-27.741l-4.315 1.285c11.638-3.94 23.167-8.314 34.407-13.047l-6.434 2.674c36.871-15.566 68.662-34.116 97.675-56.138l-1.106 0.805c4.301-3.217-5.637 4.373-1.88 1.445l2.603-2.061c2.061-1.627 4.013-3.217 6.072-4.914 3.615-3.037 7.41-6.255 10.842-9.469 7.41-6.614 14.457-13.589 21.469-20.818s13.772-15.108 20.202-23.059c1.627-1.952 3.144-3.94 4.662-5.891-6.867 8.674-0.542 0.613 1.156-1.627 3.217-4.373 6.361-8.747 9.288-13.228 12.963-19.115 24.986-41.002 34.923-64.003l1.002-2.607-2.674 6.434c15.291-36.021 26.804-77.866 32.55-121.527l0.267-2.476c-0.361 2.421-0.613 4.734-0.976 7.227 3.522-25.538 5.533-55.048 5.533-85.029 0-0.603-0.001-1.203-0.003-1.806v0.094c0-14.811 12.005-26.816 26.816-26.816s26.816 12.005 26.816 26.816v0c0.058 3.041 0.092 6.628 0.092 10.22 0 73.061-13.788 142.899-38.903 207.061l1.333-3.863c-22.993 56.939-56.090 105.405-97.462 145.354l-0.12 0.116c-35.704 33.684-77.304 61.617-123.006 82.009l-2.804 1.118c-36.929 16.805-80.028 30.638-124.949 39.372l-3.717 0.602c-31.050 6.215-67.578 10.541-104.835 12.027l-1.387 0.044-9.107 0.253 26.816-26.816c0 34.082 0.613 68.236 0 102.391 0 0.027 0 0.062 0 0.095 0 28.963-23.48 52.441-52.441 52.441-8.951 0-17.377-2.242-24.748-6.195l0.278 0.136c-4.299-2.442-8.018-5.135-11.408-8.183l0.058 0.052c-6.361-5.168-12.504-10.445-18.758-15.721l-239.55-200.734c-6.044-4.501-11.388-9.098-16.389-14.038l0.016 0.016c-8.842-9.351-14.279-22.004-14.279-35.926 0-15.243 6.517-28.965 16.915-38.529l0.037-0.035c1.264-1.156 2.603-2.241 3.94-3.325l27.36-22.879q50.96-42.648 101.848-85.404l139.039-116.776c5.738-5.113 12.567-9.146 20.080-11.697l0.413-0.122c4.471-1.467 9.617-2.314 14.96-2.314 6.382 0 12.482 1.208 18.083 3.406l-0.336-0.116c20.511 7.692 34.862 27.097 34.95 49.866v0.011c0 6.614 0 13.155 0 19.769v83.127l-26.816-26.816q46.263-0.686 92.271-5.349c10.627-1.084 21.36-2.313 32.020-3.615l-7.227 0.976c53.206-6.833 101.059-17.886 147.004-33.125l-5.472 1.572q20.386-6.722 40.227-15.035l-6.434 2.674c30.328-12.709 56.414-27.328 80.571-44.483l-1.274 0.859 4.843-3.615c1.88-1.445 7.227-5.637-0.723 0.613 3.144-2.421 6.181-4.914 9.217-7.41 5.53-4.662 10.842-9.469 16.012-14.457s10.445-10.842 15.396-16.445c2.241-2.603 4.373-5.277 6.542-7.951 1.264-1.627 3.217-4.373-2.061 2.674l1.771-2.313 3.615-4.734c9.21-12.835 17.5-27.452 24.172-42.93l0.585-1.525-2.674 6.434c1.337-3.144 2.603-6.361 3.615-9.578 2.116-6.784 6.479-12.345 12.205-15.943l0.119-0.069c3.873-2.285 8.534-3.635 13.51-3.635 2.536 0 4.99 0.349 7.317 1.006l-0.189-0.045c11.266 3.232 19.369 13.441 19.369 25.544 0 2.485-0.341 4.89-0.98 7.171l0.045-0.187z" />
<glyph unicode="&#xe938;" glyph-name="warning" d="M546.496 212.22c0.004-0.162 0.005-0.356 0.005-0.545 0-9.046-3.774-17.211-9.831-23.007l-0.012-0.011c-5.955-5.987-14.199-9.692-23.306-9.692-0.239 0-0.476 0.003-0.714 0.007l0.035-0.001c-0.292-0.008-0.635-0.014-0.98-0.014-9.344 0-17.835 3.649-24.128 9.599l0.017-0.016c-6.226 5.733-10.111 13.925-10.111 23.023 0 0.23 0.003 0.461 0.007 0.691l-0.001-0.034c-0.007 0.26-0.011 0.567-0.011 0.874 0 9.451 3.821 18.011 10.002 24.215l-0.001-0.001c6.004 6.236 14.424 10.11 23.747 10.11 0.219 0 0.434-0.003 0.65-0.007l-0.032 0.001c0.282 0.008 0.616 0.013 0.949 0.013 9.354 0 17.802-3.875 23.827-10.11l0.009-0.009c6.114-6.228 9.886-14.77 9.886-24.194 0-0.315-0.005-0.629-0.012-0.941l0.001 0.045zM506.307 304.229l-4.421 14.147c-5.902 21.549-10.635 47.28-13.259 73.634l-0.163 2.018c-5.071 39.351-7.628 118.203-7.628 145.696q0 81.18 31.877 81.18 31.038 0 31.038-78.968c-0.093-63.492-4.622-125.843-13.292-186.859l0.824 7.075-7.628-42.402-4.421-16.053q-2.478-8.579-7.628-8.579-2.784-0.038-5.3 9.112zM511.988 786.12c-0.137 0.005-0.298 0.007-0.459 0.007-5.505 0-10.297-3.052-12.772-7.558l-0.038-0.076-364.983-645.736c-1.285-2.188-2.043-4.819-2.043-7.628 0-8.426 6.828-15.251 15.251-15.251 0.020 0 0.043 0 0.064 0h729.963c0.018 0 0.039 0 0.061 0 8.426 0 15.251 6.828 15.251 15.251 0 2.808-0.758 5.439-2.082 7.698l0.039-0.071-364.983 645.622c-2.514 4.581-7.305 7.633-12.81 7.633-0.161 0-0.322-0.003-0.482-0.007l0.023 0.001zM511.988 847.013c0.149 0.001 0.325 0.002 0.502 0.002 28.144 0 52.692-15.392 65.687-38.217l0.195-0.372 364.983-645.736c6.22-10.801 9.89-23.751 9.89-37.559 0-42.117-34.143-76.261-76.261-76.261-0.005 0-0.010 0-0.015 0h-729.965c-42.115 0.005-76.253 34.145-76.253 76.261 0 13.792 3.66 26.729 10.065 37.892l-0.196-0.371 364.983 645.772c13.175 23.262 37.758 38.704 65.948 38.704 0.154 0 0.305-0.001 0.461-0.002h-0.023z" />
<glyph unicode="&#xe939;" glyph-name="speaker" d="M895.968 448c0-13.253-10.743-23.998-23.998-23.998v0h-168.118c-13.253 0-23.998 10.743-23.998 23.998s10.743 23.998 23.998 23.998h167.984c0.041 0 0.087 0 0.134 0 13.253 0 23.998-10.743 23.998-23.998 0 0 0 0 0 0v0zM720.959 623.009l119.822 119.822c3.988 4.274 6.436 10.028 6.436 16.354 0 13.253-10.743 23.998-23.998 23.998-6.328 0-12.080-2.448-16.368-6.448l0.015 0.014-119.822-119.822c-3.988-4.274-6.436-10.028-6.436-16.354 0-13.253 10.743-23.998 23.998-23.998 6.328 0 12.080 2.448 16.368 6.448l-0.015-0.014zM720.959 272.991c-4.274 3.988-10.028 6.436-16.354 6.436-13.253 0-23.998-10.743-23.998-23.998 0-6.328 2.448-12.080 6.448-16.368l-0.014 0.015 119.822-119.822c4.395-4.708 10.634-7.646 17.564-7.646 13.253 0 23.998 10.743 23.998 23.998 0 6.928-2.934 13.17-7.631 17.55l-0.015 0.014zM632.024 772.087v-648.045c0-33.090-26.823-59.913-59.913-59.913v0h-47.996c-33.090 0-59.913 26.823-59.913 59.913v0 23.664l-151.676 108.341h-88.304c-0.030 0-0.066 0-0.101 0-53.023 0-96.016 42.946-96.093 95.95v191.99c0.056 52.992 42.999 95.936 95.985 95.992h88.308l151.676 108.341v23.632c0 33.090 26.823 59.913 59.913 59.913v0h47.996c33.090 0 59.913-26.823 59.913-59.913v0zM224.057 304.146h71.993v287.976h-71.993c-26.5-0.018-47.977-21.496-47.996-47.993v-191.987c0.018-26.5 21.496-47.977 47.993-47.996h0.003zM464.036 206.79v482.623l-119.822-85.706v-311.24zM583.861 772.087c0 6.637-5.38 12.014-12.014 12.014v0h-47.729c-6.637 0-12.014-5.38-12.014-12.014v0-648.045c0-6.637 5.38-12.014 12.014-12.014v0h47.996c6.637 0 12.014 5.38 12.014 12.014v0z" />
</font>
</defs>
</svg>
